Поцелуй на удачу / Just My Luck (Дональд Питри / Donald Petrie) [2006 г., фэнтези, мелодрама, комедия, BDRemux 1080p] Dub + DVOx2

 
Автор Сообщение

Russian Mafia ®

Пол:

Стаж: 1 год 8 месяцев

Сообщений: 4255



Награды: 10 (Подробнее)

Top Releaser 5 (Количество: 1) Mega Seeder 2 (Количество: 1) Mega Seeder 4 (Количество: 1)
Торрент-статистика

Создавать темы 23-Мар-2016 06:56

[Цитировать]

Поцелуй на удачу / Just My Luck
Год выпуска: 2006
Страна: США
Жанр: фэнтези, мелодрама, комедия
Продолжительность: 01:41:40
Перевод: Профессиональный (полное дублирование)
Перевод: Профессиональный (двухголосый)
Субтитры: русские (x2), английские
Режиссер: Дональд Питри / Donald Petrie
В ролях: Линдси Лохан, Крис Пайн, Сэмэр Армстронг, Бри Тернер, Фэйзон Лав, Мисси Пайл, Макензи Вега, Карлос Понсе, Том Флетчер, Дэнни Джонс
Описание: Сексуальная жительница Манхеттена Эшли слывет самой удачливой девчонкой в округе. Однако после случайного поцелуя с одним неудачником, Эшли понимает, что ее удача «повернулась к ней спиной и уплыла к тому парню». И как теперь «отъявленной неудачнице» вернуть свой «счастливый поцелуй»?
Качество: BDRemux
Формат: MKV
Видео: MPEG-4 AVC Video 31931 kbps 1080p / 23,976 fps / 16:9 / High Profile 4.1
Аудио: DTS Audio Russian 5.1 / 48 kHz / 755 kbps / 24-bit [дубляж]
Аудио: DTS Audio Russian 5.1 / 48 kHz / 755 kbps / 24-bit [DDV]
Аудио: Dolby Digital Audio Russian 5.1 / 48 kHz / 448 kbps [Tycoon]
Аудио: DTS-HD Master Audio English 5.1 / 48 kHz / 3899 kbps / 24-bit (DTS Core: 5.1 / 48 kHz / 1509 kbps / 24-bit)

MI

General
Unique ID : 221189082172948785515862114358528857123 (0xA66777B96845C00480D604B8FAAC5423)
Complete name : G:\bluray\Just.My.Luck.2006.1080p.Bluray.AVC.Remux.mkv
Format : Matroska
Format version : Version 2
File size : 26.8 GiB
Duration : 1h 41mn
Overall bit rate : 37.7 Mbps
Movie name : Just.My.Luck.2006.1080p.Bluray.AVC.Remux
Encoded date : UTC 2011-10-09 03:25:41
Writing application : mkvmerge v5.0.0 ('Die Wahre Liebe') built on Sep 25 2011 20:33:49
Writing library : libebml v1.2.2 + libmatroska v1.3.0
Video
ID : 1
Format : AVC
Format/Info : Advanced Video Codec
Format profile : High@L4.1
Format settings, CABAC : Yes
Format settings, ReFrames : 4 frames
Codec ID : V_MPEG4/ISO/AVC
Duration : 1h 41mn
Bit rate mode : Variable
Bit rate : 31.7 Mbps
Maximum bit rate : 33.0 Mbps
Width : 1 920 pixels
Height : 1 080 pixels
Display aspect ratio : 16:9
Frame rate : 23.976 fps
Color space : YUV
Chroma subsampling : 4:2:0
Bit depth : 8 bits
Scan type : Progressive
Bits/(Pixel*Frame) : 0.638
Stream size : 22.5 GiB (84%)
Title : uralmix
Audio #1
ID : 2
Format : DTS
Format/Info : Digital Theater Systems
Codec ID : A_DTS
Duration : 1h 41mn
Bit rate mode : Constant
Bit rate : 755 Kbps
Channel(s) : 6 channels
Channel positions : Front: L C R, Side: L R, LFE
Sampling rate : 48.0 KHz
Bit depth : 24 bits
Compression mode : Lossy
Stream size : 549 MiB (2%)
Title : дубляж
Language : Russian
Audio #2
ID : 3
Format : DTS
Format/Info : Digital Theater Systems
Codec ID : A_DTS
Duration : 1h 41mn
Bit rate mode : Constant
Bit rate : 755 Kbps
Channel(s) : 6 channels
Channel positions : Front: L C R, Side: L R, LFE
Sampling rate : 48.0 KHz
Bit depth : 24 bits
Compression mode : Lossy
Stream size : 549 MiB (2%)
Title : DDV
Language : Russian
Audio #3
ID : 4
Format : AC-3
Format/Info : Audio Coding 3
Mode extension : CM (complete main)
Codec ID : A_AC3
Duration : 1h 41mn
Bit rate mode : Constant
Bit rate : 448 Kbps
Channel(s) : 6 channels
Channel positions : Front: L C R, Side: L R, LFE
Sampling rate : 48.0 KHz
Bit depth : 16 bits
Compression mode : Lossy
Stream size : 326 MiB (1%)
Title : Tycoon
Language : Russian
Audio #4
ID : 5
Format : DTS
Format/Info : Digital Theater Systems
Format profile : MA / Core
Codec ID : A_DTS
Duration : 1h 41mn
Bit rate mode : Variable
Bit rate : 3 274 Kbps / 1 510 Kbps
Channel(s) : 6 channels
Channel positions : Front: L C R, Side: L R, LFE
Sampling rate : 48.0 KHz
Bit depth : 24 bits
Compression mode : Lossless / Lossy
Language : English
Text #1
ID : 6
Format : UTF-8
Codec ID : S_TEXT/UTF8
Codec ID/Info : UTF-8 Plain Text
Title : BD
Language : Russian
Text #2
ID : 7
Format : UTF-8
Codec ID : S_TEXT/UTF8
Codec ID/Info : UTF-8 Plain Text
Title : Tycoon
Language : Russian
Text #3
ID : 8
Format : UTF-8
Codec ID : S_TEXT/UTF8
Codec ID/Info : UTF-8 Plain Text
Title : SDH
Language : English
Menu
00:00:00.000 : en:00:00:00.000
00:07:03.340 : en:00:07:03.340
00:12:49.102 : en:00:12:49.102
00:15:06.823 : en:00:15:06.823
00:17:48.401 : en:00:17:48.401
00:19:51.774 : en:00:19:51.774
00:22:14.708 : en:00:22:14.708
00:25:22.396 : en:00:25:22.396
00:26:59.368 : en:00:26:59.368
00:29:36.733 : en:00:29:36.733
00:31:13.997 : en:00:31:13.997
00:35:53.526 : en:00:35:53.526
00:37:35.712 : en:00:37:35.712
00:39:44.299 : en:00:39:44.299
00:43:06.584 : en:00:43:06.584
00:45:06.120 : en:00:45:06.120
00:51:02.518 : en:00:51:02.518
00:54:35.856 : en:00:54:35.856
00:58:17.035 : en:00:58:17.035
01:01:14.004 : en:01:01:14.004
01:04:29.991 : en:01:04:29.991
01:10:21.134 : en:01:10:21.134
01:13:52.970 : en:01:13:52.970
01:16:13.110 : en:01:16:13.110
01:21:32.346 : en:01:21:32.346
01:26:19.174 : en:01:26:19.174
01:31:01.831 : en:01:31:01.831
01:34:57.108 : en:01:34:57.108

Скриншоты

[Профиль] [ЛС]
Кто просматривает тему:

Форум Тема Автор Размер
Любовные романы и эротика Где валяются поцелуи (Ринат Валиуллин) [2014, Любовный роман, аудиокнига, MP3, 192 kbps, TED] Magnat 417 MB
Фильмы 2009 года Замерзший поцелуй / Frozen Kiss (Гарри Бромли Девенпорт / Harry Bromley Davenport) [2009, США, Драма, HDTVRip] MVO TorrentFilm 1.37 GB
Фильмы (HD Rips | 720p, 1080p) Поцелуй в голову (2012) HDTV 1080i от MediaClub sergej644 6.06 GB
Фильмы (DVD 5/9) Поцелуй в голову (Георгий Гаврилов) [2012, Россия, мелодрама, криминал, DVD5] TorrentFilm 4.21 GB
Фильмы (HD DVD, Blu-ray и BDRemux) Поцелуй дракона / Kiss of the Dragon (2001) Blu-ray 1080p | D | Custom BOSS 21.12 GB
Фильмы 2011 года Поцелуй жизни / The kiss of life / To fili tis Zois (Никос Запатинас / Nikos Zapatinas / Νίκος Ζαπατίνaς) [2007, Греция, Комедия,... painkiller 683 MB
Зарубежные Поцелуй меня Кэт в 3Д / Kiss Me Kate 3D (Джордж Сидни / George Sidney) [1953, Мюзикл, мелодрама, комедия, BDremux, 1080p] BD3D TorrentFilm 35.52 GB
Зарубежные Поцелуй меня Кэт в 3Д / Kiss Me Kate 3D (Джордж Сидни / George Sidney) [1953, Мюзикл, Мелодрама, Комедия, BDrip-AVC] VO, Half OverUnder / Вертикальная анаморфная стереопара TorrentFilm 14.6 GB
Показать сообщения:    

Текущее время: Сегодня 12:33

Часовой пояс: GMT



Вы не можете начинать темы
Вы не можете отвечать на сообщения
Вы не можете редактировать свои сообщения
Вы не можете удалять свои сообщения
Вы не можете голосовать в опросах
Вы не можете прикреплять файлы к сообщениям
Вы не можете скачивать файлы