Поцелуй навылет / Kiss Kiss Bang Bang (2005) BDRip-AVC | D

 
Автор Сообщение

Swager ®

Пол:

Стаж: 2 года

Сообщений: 907



Награды: 3 (Подробнее)

Top Releaser 2 (Количество: 1) Mega Seeder 1 (Количество: 1) Mega Seeder 2 (Количество: 1)
Торрент-статистика

Создавать темы 05-Окт-2017 03:46

[Цитировать]

Информация о фильме
Название: Поцелуй навылет
Оригинальное название: Kiss Kiss Bang Bang
Год выхода: 2005
Жанр: Боевик, комедия, криминал
Режиссер: Шейн Блэк
В ролях: Роберт Дауни мл., Вэл Килмер, Мишель Монахэн, Корбин Бернсен, Дэш Майок, Ларри Миллер, Рокмонд Данбар, Шаннин Соссамон, Анджела Линдвэлл, Индио Фалконер Дауни, Эриель Винтер, Дуан Карнахан, Джош Ричман, Марта Хэкетт, Нэнси Фиш, Билл МакАдамс мл., Таня Ричерт, Джэйк МакКиннон, Стефани Пирсон, Кристофер Гилман, Брендан Феили, Дэвид Ньюсом, Джуди Аронсон, Али Хиллис, Уайли М. Пикетт, Джо Кийес, Бобби Таттл, Джэйк Эберли, Саида Паган, Лела Эдгар, Дэниэл Браунинг Смит
О фильме :
Зайдя на Рождество в нью-йоркский магазин игрушек, симпатичный вор Гарри Локхарт случайно задевает сигнализацию и, спасаясь бегством от полиции, попадает на кинопробы в детективный фильм. Продюсеру нравится его напористость, и он приглашает Гарри в Голливуд. Готовит Локхарта к кинопробе Перри ван Шрайк, настоящий сыщик, оказавшийся к тому же еще и гомосексуалистом. На роль главной героини претендует актриса Хармони Фэйт, с которой Гарри связывает общая любовь к детективным историям Джонни Госсамера. Однажды ночью Перри берет Гарри с собой на задание, и в итоге им приходится заняться расследованием убийства некоей женщины. Затем, как и в романе Госсамера, возникает еще одна детективная линия: сестра Хармони совершает самоубийство, которое, как выясняется, имеет прямое отношение к обнаруженному Перри и Гарри трупу.

Страна: США
Студия: Silver Pictures, Warner Bros. Pictures Co.
Продолжительность: 01:42:42
Перевод: Профессиональный (полное дублирование)
Файл
Формат: MKV
Качество: BDRip-AVC (BDRemux 1080p)
Видео: MPEG-4 AVC, 768x316, ~ 941 Кбит/с
Аудио: AAC-LC, 2 ch, ~72 Кбит/с
Субтитры: Русские

MI

Общее
Уникальный идентификатор : 194739788768408601958213889213190234553 (0x928184E0CE6B723B90D88B6AD355E1B9)
Полное имя : D:MOVIESKiss Kiss Bang Bang.2005.ExKinoRay.mkv
Формат : Matroska
Версия формата : Version 4 / Version 2
Размер файла : 745 Мбайт
Продолжительность : 1 ч. 42 м.
Общий поток : 1015 Кбит/сек
Название фильма :
Дата кодирования : UTC 2017-10-04 17:31:50
Программа кодирования : mkvmerge v15.0.0 ('Duel with the Devil') 64-bit
Библиотека кодирования : libebml v1.3.5 + libmatroska v1.4.5
Видео
Идентификатор : 1
Формат : AVC
Формат/Информация : Advanced Video Codec
Профиль формата : High@L4.1
Параметр CABAC формата : Да
Параметр RefFrames формата : 10 кадров
Идентификатор кодека : V_MPEG4/ISO/AVC
Продолжительность : 1 ч. 42 м.
Битрейт : 941 Кбит/сек
Ширина : 768 пикселей
Высота : 316 пикселей
Соотношение сторон : 2,40:1
Режим частоты кадров : Постоянный
Частота кадров : 23,976 (24000/1001) кадра/сек
Цветовое пространство : YUV
Субдискретизация насыщенности : 4:2:0
Битовая глубина : 8 бит
Тип развёртки : Прогрессивная
Бит/(Пиксели*Кадры) : 0.162
Размер потока : 691 Мбайт (93%)
Библиотека кодирования : x264 core 152 r2851kMod ba24899
Настройки программы : cabac=1 / ref=10 / deblock=1:-2:-2 / analyse=0x3:0x113 / me=umh / subme=11 / psy=1 / fade_compensate=0.00 / psy_rd=1.00:0.05 / mixed_ref=1 / me_range=32 / chroma_me=1 / trellis=2 / 8x8dct=1 / cqm=0 / deadzone=21,11 / fast_pskip=0 / chroma_qp_offset=-3 / threads=6 / lookahead_threads=1 / sliced_threads=0 / nr=0 / decimate=0 / interlaced=0 / bluray_compat=0 / constrained_intra=0 / bframes=10 / b_pyramid=2 / b_adapt=2 / b_bias=0 / direct=3 / weightb=1 / open_gop=0 / weightp=2 / keyint=240 / keyint_min=23 / scenecut=40 / intra_refresh=0 / rc_lookahead=40 / rc=2pass / mbtree=1 / bitrate=941 / ratetol=1.0 / qcomp=0.60 / qpmin=0 / qpmax=69 / qpstep=4 / cplxblur=20.0 / qblur=0.5 / vbv_maxrate=50000 / vbv_bufsize=62500 / nal_hrd=none / filler=0 / ip_ratio=1.40 / aq=3:1.00
Default : Да
Forced : Нет
Аудио
Идентификатор : 2
Формат : AAC
Формат/Информация : Advanced Audio Codec
Профиль формата : LC
Идентификатор кодека : A_AAC
Продолжительность : 1 ч. 42 м.
Битрейт : 72,0 Кбит/сек
Каналы : 2 канала
Расположение каналов : Front: L R
Частота : 48,0 КГц
Частота кадров : 46,875 кадров/сек (1024 SPF)
Метод сжатия : С потерями
Задержка видео : 873 мс.
Размер потока : 52,9 Мбайт (7%)
Default : Да
Forced : Нет
Текст
Идентификатор : 3
Формат : UTF-8
Идентификатор кодека : S_TEXT/UTF8
Идентификатор кодека/Информация : UTF-8 Plain Text
Продолжительность : 1 ч. 41 м.
Битрейт : 132 бит/сек
ElementCount : 1455
Размер потока : 98,8 Кбайт (0%)
Заголовок : Русские
Язык : Russian
Default : Нет
Forced : Нет
Меню
00:00:00.000 : :Chapter 01
00:03:24.621 : :Chapter 02
00:08:24.754 : :Chapter 03
00:12:46.640 : :Chapter 04
00:17:19.288 : :Chapter 05
00:23:39.334 : :Chapter 06
00:25:27.901 : :Chapter 07
00:30:57.772 : :Chapter 08
00:33:35.054 : :Chapter 09
00:36:29.103 : :Chapter 10
00:38:38.899 : :Chapter 11
00:44:22.660 : :Chapter 12
00:46:42.341 : :Chapter 13
00:49:06.777 : :Chapter 14
00:52:15.590 : :Chapter 15
00:56:11.076 : :Chapter 16
00:59:23.893 : :Chapter 17
01:02:11.936 : :Chapter 18
01:05:45.566 : :Chapter 19
01:07:15.531 : :Chapter 20
01:11:07.888 : :Chapter 21
01:15:56.552 : :Chapter 22
01:19:11.830 : :Chapter 23
01:22:51.341 : :Chapter 24
01:26:11.040 : :Chapter 25
01:28:49.991 : :Chapter 26
01:32:10.691 : :Chapter 27
01:35:23.968 : :Chapter 28
01:38:30.321 : :Chapter 29

Скриншоты


[Профиль] [ЛС]
Кто просматривает тему:

Форум Тема Автор Размер
Фильмы до 2000 года Долгий поцелуй на ночь / The Long Kiss Goodnight (Ренни Харлин) [1996 г., боевик, триллер, драма, криминал, детектив, HDRip-AVC] [MVO (Киномания)] Bathory 743 MB
Фильмы 2009 года Замерзший поцелуй / Frozen Kiss (Гарри Бромли Девенпорт / Harry Bromley Davenport) [2009, США, Драма, HDTVRip] MVO TorrentFilm 1.37 GB
Фильмы (HD Rips | 720p, 1080p) Поцелуй в голову (2012) HDTV 1080i от MediaClub sergej644 6.06 GB
Фильмы (DVD 5/9) Поцелуй в голову (Георгий Гаврилов) [2012, Россия, мелодрама, криминал, DVD5] TorrentFilm 4.21 GB
Фильмы (HD DVD, Blu-ray и BDRemux) Поцелуй дракона / Kiss of the Dragon (2001) Blu-ray 1080p | D | Custom BOSS 21.12 GB
Фильмы 2011 года Поцелуй жизни / The kiss of life / To fili tis Zois (Никос Запатинас / Nikos Zapatinas / Νίκος Ζαπατίνaς) [2007, Греция, Комедия,... painkiller 683 MB
Зарубежные Поцелуй меня Кэт в 3Д / Kiss Me Kate 3D (Джордж Сидни / George Sidney) [1953, Мюзикл, мелодрама, комедия, BDremux, 1080p] BD3D TorrentFilm 35.52 GB
Зарубежные Поцелуй меня Кэт в 3Д / Kiss Me Kate 3D (Джордж Сидни / George Sidney) [1953, Мюзикл, Мелодрама, Комедия, BDrip-AVC] VO, Half OverUnder / Вертикальная анаморфная стереопара TorrentFilm 14.6 GB
Показать сообщения:    

Текущее время: Сегодня 14:28

Часовой пояс: GMT



Вы не можете начинать темы
Вы не можете отвечать на сообщения
Вы не можете редактировать свои сообщения
Вы не можете удалять свои сообщения
Вы не можете голосовать в опросах
Вы не можете прикреплять файлы к сообщениям
Вы не можете скачивать файлы