Поцелуй жизни / The kiss of life / To fili tis Zois (Никос Запатинас / Nikos Zapatinas / Νίκος Ζαπατίνaς) [2007, Греция, Комедия, DVDRip] (PolTi) + Sub Rus

 
Автор Сообщение

painkiller ®

Стаж: 2 года 3 месяца

Сообщений: 582



Награды: Нет

Торрент-статистика

Создавать темы 14-Авг-2014 13:00

[Цитировать]

Поцелуй жизни / The kiss of life / To fili tis Zois
Страна: Греция
Жанр: Комедия
Год выпуска: 2007
Продолжительность: 01:39:35
Перевод: Субтитры
Cубтитры: русские
Оригинальная аудиодорожка: греческий
Режиссер: Никос Запатинас / Nikos Zapatinas / Νίκος Ζαπατίνaς
В ролях: Лаэртис Малкоцис, Катерина Папуцаки, Зета Зука,
Темос Анастасьядис, Сакис Вулас, Яннис Зуганелис
Описание: Паскалис — 30-летний агрономом, собирается жениться на своей любимой Анфуле с острова Милос.
Случайно сев на паром, идущий на остров Сифнос, встречает там Зои — красивую и странную фото-художницу,
которая направляется на остров по своим личным делам.
Девиз фильма: Жизнь прекрасна, но я женюсь в воскресение!
Доп. информация: IMDB , kinopoisk
Сэмпл
Качество видео: DVDRip
Формат видео: AVI
Видео: Xvid, 720x384 (16:9), 25 fps, MPEG-4, Битрейт 822 Kbps, 0,119 bit/pixel
Аудио: MP3, 48000 kHz, 2ch, 128 kbps
Формат субтитров: softsub (SRT)
Доп. информация о субтитрах: переведено мной

MediaInfo

Полное имя : To fili tis Zois.avi
Формат : DivX
Формат/Информация : Hack of AVI
Размер файла : 683 Мбайт
Продолжительность : 1 ч. 39 м.
Общий поток : 959 Кбит/сек
Видео
Идентификатор : 0
Формат : MPEG-4 Visual
Профиль формата : Advanced Simple@L5
Параметр BVOP формата : 1
Параметр QPel формата : Нет
Параметр GMC формата : Без точки перехода
Параметр матрицы формата : Выборочная
Режим смешивания : Сжатый битовый поток
Идентификатор кодека : DX50
Идентификатор кодека/Подсказка : DivX 5
Продолжительность : 1 ч. 39 м.
Битрейт : 822 Кбит/сек
Ширина : 720 пикселей
Высота : 384 пикселя
Соотношение сторон : 1,85:1
Частота кадров : 25,000 кадров/сек
Цветовое пространство : YUV
Субдискретизация насыщенности : 4:2:0
Битовая глубина : 8 бит
Тип развёртки : Прогрессивная
Метод сжатия : С потерями
Бит/(Пиксели*Кадры) : 0.119
Размер потока : 585 Мбайт (86%)
Заголовок : Video
Библиотека кодирования : XviD 1.1.2 (UTC 2006-11-01)
Аудио
Идентификатор : 1
Формат : MPEG Audio
Версия формата : Version 1
Профиль формата : Layer 3
Режим : Joint stereo
Расширение режима : MS Stereo
Идентификатор кодека : 55
Идентификатор кодека/Подсказка : MP3
Продолжительность : 1 ч. 39 м.
Вид битрейта : Постоянный
Битрейт : 128 Кбит/сек
Каналы : 2 канала
Частота : 48,0 КГц
Метод сжатия : С потерями
Размер потока : 91,2 Мбайт (13%)
Выравнивание : Разделение по промежуткам
Продолжительность промежутка : 40 мс. (1,00 видеокадр)
Время предзагрузки промежутка : 500 мс.
Заголовок : Audio
Библиотека кодирования : LAME3.96r
Настройки программы : -m j -V 4 -q 7 -lowpass 17.5 -b 128

Скриншот c названием фильма

Часть текта субтитров:

44
00:07:14,560 --> 00:07:16,755
А я не храплю.
45
00:07:16,960 --> 00:07:22,830
Я тебе скажу, ты кажешься спокойным малым,
ты запутался, у тебя такая возможность сейчас!
46
00:07:22,960 --> 00:07:26,032
Согласна, сегодня она тебя любит,
но завтра, послезавтра...
47
00:07:26,160 --> 00:07:29,630
...она тебя пошлёт.
48
00:07:29,760 --> 00:07:33,673
Я люблю её, она любит меня
и мы будем любить друг друга всегда.
49
00:07:33,800 --> 00:07:38,715
Конечно. Ваш оптимизм...
50
00:07:38,840 --> 00:07:43,470
...выходит далеко-далеко
за пределы научной фантастики.
51
00:07:59,800 --> 00:08:03,952
Хочешь чтоб она тебя таким увидела?
52
00:08:05,000 --> 00:08:08,993
Капитан и команда благодарит вас...
53
00:08:09,120 --> 00:08:14,433
...за путешествие с нами
и мы надеемся увидеть вас вскоре.
54
00:08:14,600 --> 00:08:18,878
Анфула, моя любовь,
Я на Сифносе.
55
00:08:19,040 --> 00:08:23,477
Не волнуйся, любовь моя.
Я сам доплыву.
56
00:08:24,000 --> 00:08:27,629
Отключила.
-Вижу, ты очень любишь Анфулу.
57
00:08:27,760 --> 00:08:31,150
-Она очень хорошая.
-Да, психопатка.
58
00:08:31,280 --> 00:08:34,829
-И ты слышала что она мне крикнула?
-И ещё пол-острова.
59
00:08:40,800 --> 00:08:42,916
Куда я сейчас иду?
60
00:08:43,680 --> 00:08:48,071
Давай зайдём
И подумаем как ты уедешь.
61
00:09:13,480 --> 00:09:15,755
Хочешь принять душ,
чтоб немножко освежиться?
62
00:09:15,880 --> 00:09:17,43
Нет, мне и так хорошо.
63
00:09:18,240 --> 00:09:20,390
Да, я это вижу.
64
00:09:28,840 --> 00:09:32,435
Анфула, я пойду
в агенство путешествий
65
00:09:32,560 --> 00:09:36,439
Найду способ вернуться.
66
00:09:37,640 --> 00:09:40,234
Так быстро, как только возможно
[Профиль] [ЛС]

Создавать темы 06-Авг-2015 23:14 (спустя 11 месяцев 23 дня)

Топик был перенесен из форума Фильмы до 2014 года в форум Фильмы до 2012 года
sergej644
 
Кто просматривает тему:

Форум Тема Автор Размер
Любовные романы и эротика Где валяются поцелуи (Ринат Валиуллин) [2014, Любовный роман, аудиокнига, MP3, 192 kbps, TED] Magnat 417 MB
Фильмы 2009 года Замерзший поцелуй / Frozen Kiss (Гарри Бромли Девенпорт / Harry Bromley Davenport) [2009, США, Драма, HDTVRip] MVO TorrentFilm 1.37 GB
Фильмы (HD Rips | 720p, 1080p) Поцелуй в голову (2012) HDTV 1080i от MediaClub sergej644 6.06 GB
Фильмы (DVD 5/9) Поцелуй в голову (Георгий Гаврилов) [2012, Россия, мелодрама, криминал, DVD5] TorrentFilm 4.21 GB
Фильмы (HD DVD, Blu-ray и BDRemux) Поцелуй дракона / Kiss of the Dragon (2001) Blu-ray 1080p | D | Custom BOSS 21.12 GB
Зарубежные Поцелуй меня Кэт в 3Д / Kiss Me Kate 3D (Джордж Сидни / George Sidney) [1953, Мюзикл, мелодрама, комедия, BDremux, 1080p] BD3D TorrentFilm 35.52 GB
Зарубежные Поцелуй меня Кэт в 3Д / Kiss Me Kate 3D (Джордж Сидни / George Sidney) [1953, Мюзикл, Мелодрама, Комедия, BDrip-AVC] VO, Half OverUnder / Вертикальная анаморфная стереопара TorrentFilm 14.6 GB
Фильмы 2011 года Поцелуй меня снова / Kiss Me Again (Уильям Тайлер Смит / William Tyler Smith) [2006, США, драма, мелодрама, DVDRip] DVO (R5) + DVO (Гланц и Королёва) painkiller 1.77 GB
Показать сообщения:    

Текущее время: Сегодня 18:29

Часовой пояс: GMT



Вы не можете начинать темы
Вы не можете отвечать на сообщения
Вы не можете редактировать свои сообщения
Вы не можете удалять свои сообщения
Вы не можете голосовать в опросах
Вы не можете прикреплять файлы к сообщениям
Вы не можете скачивать файлы