Поцелуй в голову (Георгий Гаврилов) [2012, Россия, мелодрама, криминал, DVD5]

 
Автор Сообщение

TorrentFilm ®

Пол:

Стаж: 2 года

Сообщений: 7741



Награды: Нет

Торрент-статистика

Создавать темы 02-Янв-2016 00:01

[Цитировать]

Поцелуй в голову-«Решение проблем... сближает...»- Страна: Россия
Студия: Мостелефильм
Жанр: мелодрама, криминал
Год выпуска: 2012
Продолжительность: 01:45:34-Cубтитры: нет
Оригинальная аудиодорожка: русский-Режиссер: Георгий Гаврилов
В ролях: Денис Рожков, Наталья Рудова, Юрий Осипов, Андрей Тартаков, Александр Тютин, Владислав Дунаев, Сергей Шарифуллин, Александр Тараньжин, Александр Арсентьев, Олег Кныш, Максим Артамонов, Ксения Березина-Описание: Егор, в прошлом чемпион по ралли, работает в службе «трезвый водитель», развозит по домам подвыпивших клиентов. Когда-то он и сам садился пьяным за руль, что однажды привело к трагедии. В ДТП погибла его жена… Судьба сталкивает Егора с Дашей и когда девушке грозит опасность, он, не раздумывая, кидается ей на помощь. Даша оказывается вовлеченной в бандитские разборки, в которых участвует и полицейский — «оборотень» Морозов. Даша помогла своему любимому сбежать из тюрьмы и ради него выкрала деньги из сейфа у беспринципного чиновника-вора. Но Султанов решает убить Дашу, чтобы не делиться с ней деньгами…
Егор и Даша проедут вместе не один километр, не один раз поговорят по душам, спасут жизнь следователю Романенко и помогут ему в расследовании.- -Бонусы: отсутствуют
Меню: на русском языке, статичное, озвученное-Тип релиза: DVD5
Контейнер: DVD-Video-Видео: MPEG2; PAL 16:9 (720x576@1024x576) VBR Auto Letterboxed;25,000 fps; 5135 kbps
Аудио 1: Russian (Dolby AC3, 2 ch, 192 kbps)
Аудио 2: Russian (Dolby AC3, 6 ch, 256 kbps)
Формат субтитров: prerendered (DVD/IDX+SUB)

MediaInfo

Общее
Полное имя : F:Poceluj.v.golovu.2012\VIDEO_TS\VTS_01_2.VOB
Формат : MPEG-PS
Размер файла : 1024 Мбайт
Продолжительность : 25 м.
Общий поток : 5697 Кбит/сек
Видео
Идентификатор : 224 (0xE0)
Формат : MPEG Video
Версия формата : Version 2
Профиль формата : Main@Main
Параметр BVOP формата : Да
Параметр матрицы формата : По умолчанию
Продолжительность : 25 м.
Вид битрейта : Переменный
Битрейт : 5135 Кбит/сек
Номинальный битрейт : 8100 Кбит/сек
Ширина : 720 пикс.
Высота : 576 пикс.
Соотношение сторон : 16:9
Частота кадров : 25,000 кадр/сек
Стандарт вещания : PAL
Цветовое пространство : YUV
Подвыборка цветности : 4:2:0
Битовая глубина : 8 бит
Тип развёртки : Прогрессивная
Метод сжатия : С потерями
Бит/(Пиксели*Кадры) : 0.495
Размер потока : 923 Мбайт (90%)
Аудио #1
Идентификатор : 189 (0xBD)-128 (0x80)
Формат : AC-3
Формат/Информация : Audio Coding 3
Расширение режима : CM (complete main)
Режим смешивания : DVD-Video
Продолжительность : 25 м.
Вид битрейта : Постоянный
Битрейт : 192 Кбит/сек
Каналы : 2 канала
Расположение каналов : Front: L R
Частота : 48,0 КГц
Битовая глубина : 16 бит
Метод сжатия : С потерями
Задержка видео : -472 мс.
Размер потока : 34,5 Мбайт (3%)
Аудио #2
Идентификатор : 189 (0xBD)-129 (0x81)
Формат : AC-3
Формат/Информация : Audio Coding 3
Расширение режима : CM (complete main)
Режим смешивания : DVD-Video
Продолжительность : 25 м.
Вид битрейта : Постоянный
Битрейт : 256 Кбит/сек
Каналы : 6 каналов
Расположение каналов : Front: L C R, Side: L R, LFE
Частота : 48,0 КГц
Битовая глубина : 16 бит
Метод сжатия : С потерями
Задержка видео : -472 мс.
Размер потока : 46,0 Мбайт (4%)
Меню

DVDInfo

Title: Poceluj.v.golovu.2012
Size: 4.21 Gb ( 4 411 094,00 KBytes ) - DVD-5
Enabled regions: 1, 2, 3, 4, 5, 6, 7, 8
VTS_01 :
Play Length: 01:45:34
Video: PAL 16:9 (720x576) VBR, Auto Letterboxed
Audio:
English (Dolby AC3, 2 ch)
English (Dolby AC3, 6 ch)
* Menus Information *
VIDEO_TS Menu
Video:
PAL 16:9 (720x576) VBR
Auto Letterboxed
English Language Unit :
Title Menu
VTS_01 Menu
Video:
PAL 16:9 (720x576) VBR
Auto Letterboxed
Audio:
Not specified (Dolby AC3, 2 ch)
English Language Unit :
Root Menu

Скриншоты меню

Скриншоты

[Профиль] [ЛС]
Кто просматривает тему:

Форум Тема Автор Размер
Любовные романы и эротика Где валяются поцелуи (Ринат Валиуллин) [2014, Любовный роман, аудиокнига, MP3, 192 kbps, TED] Magnat 417 MB
Фильмы 2009 года Замерзший поцелуй / Frozen Kiss (Гарри Бромли Девенпорт / Harry Bromley Davenport) [2009, США, Драма, HDTVRip] MVO TorrentFilm 1.37 GB
Фильмы (HD Rips | 720p, 1080p) Поцелуй в голову (2012) HDTV 1080i от MediaClub sergej644 6.06 GB
Фильмы (HD DVD, Blu-ray и BDRemux) Поцелуй дракона / Kiss of the Dragon (2001) Blu-ray 1080p | D | Custom BOSS 21.12 GB
Фильмы 2011 года Поцелуй жизни / The kiss of life / To fili tis Zois (Никос Запатинас / Nikos Zapatinas / Νίκος Ζαπατίνaς) [2007, Греция, Комедия,... painkiller 683 MB
Зарубежные Поцелуй меня Кэт в 3Д / Kiss Me Kate 3D (Джордж Сидни / George Sidney) [1953, Мюзикл, мелодрама, комедия, BDremux, 1080p] BD3D TorrentFilm 35.52 GB
Зарубежные Поцелуй меня Кэт в 3Д / Kiss Me Kate 3D (Джордж Сидни / George Sidney) [1953, Мюзикл, Мелодрама, Комедия, BDrip-AVC] VO, Half OverUnder / Вертикальная анаморфная стереопара TorrentFilm 14.6 GB
Фильмы 2011 года Поцелуй меня снова / Kiss Me Again (Уильям Тайлер Смит / William Tyler Smith) [2006, США, драма, мелодрама, DVDRip] DVO (R5) + DVO (Гланц и Королёва) painkiller 1.77 GB
Показать сообщения:    

Текущее время: Сегодня 08:00

Часовой пояс: GMT



Вы не можете начинать темы
Вы не можете отвечать на сообщения
Вы не можете редактировать свои сообщения
Вы не можете удалять свои сообщения
Вы не можете голосовать в опросах
Вы не можете прикреплять файлы к сообщениям
Вы не можете скачивать файлы