Похороните меня за плинтусом (Сергей Снежкин) [2009, Россия, Драма, DVD9] + Sub (Rus, Eng, Ger, Fra, Spa, Ita)

 
Автор Сообщение

TorrentFilm ®

Пол:

Стаж: 2 года

Сообщений: 7741



Награды: Нет

Торрент-статистика

Создавать темы 02-Янв-2016 00:04

[Цитировать]

Похороните меня за плинтусом
Страна: Россия
Студия: Киностудия "Глобус"
Жанр: Драма
Год выпуска: 2009
Продолжительность: 01:50:17
Cубтитры: русские, английские, немецкие, французские, испанские, итальянские
Режиссер: Сергей Снежкин
В ролях: Светлана Крючкова, Алексей Петренко, Мария Шукшина, Александр Дробитько, Константин Воробьев и др.-Описание: Социальная драма о превратностях любви с элементами гротеска - экранизация одноименной повести Павла Санаева. Восьмилетний мальчик Саша оказывается заложником деспотичной любви собственной бабушки - разменной картой в сложном хитросплетении отношений между бабушкой, дедушкой, мамой и маминым мужем.-Бонусы:
1. Фотоальбом
2. Трейлеры к фильмам: "Лучшее время года", "Вероника не придёт", "Удалённый доступ", "Чеховские мотивы", "Сочинение ко Дню Победы", "Гадкие лебеди"
Меню: анимированное, озвученное на русском и английском языках
Тип релиза: DVD9
Контейнер: DVD-Video
Видео: MPEG Video, PAL 4:3 (720x576), 25,000 кадр/сек, 6000 Кбит/сек
Аудио 1: Русский Dolby AC3, 6 ch, 48 kHz, 448 kbps
Аудио 2: Русский Dolby AC3, 2 ch, 48 kHz, 224 kbps
Субтитры: Rus, Eng, Ger, Fra, Spa, Ita (RLE)

DVDInfo

Title: Bury Me Behind the Baseboard (2009) DVD9Size: 5.95 Gb ( 6 242 952,00 KBytes ) - DVD-9Enabled regions: 1, 2, 3, 4, 5, 6, 7, 8
VTS_01 : Play Length: 00:00:00 Video: PAL 4:3 (720x576) VBR
VTS_02 : Play Length: 00:00:21 Video: PAL 4:3 (720x576) VBR Audio: Not specified (Dolby AC3, 6 ch)
VTS_03 : Play Length: 01:50:20 Video: PAL 4:3 (720x576) VBR Audio: Russian, AC3, 3/2 (L,C,R,SL,SR)+LFE ch, 448 kbps, Delay 0 mSec Russian, AC3, 2/0 (L,R) ch, 224 kbps, Delay 0 mSec
Subtitles: Russian English Francais Espanol Deutsch Italiano
VTS_04 : Play Length: 00:04:00 Video: PAL 4:3 (720x576) VBR Audio: Not specified (Dolby AC3, 2 ch)
VTS_05 : Play Length: 00:01:31 Video: PAL 4:3 (720x576) VBR Audio: Russian (Dolby AC3, 2 ch) Subtitles: Russian English
VTS_06 : Play Length: 00:00:44 Video: PAL 4:3 (720x576) VBR Audio: Russian (Dolby AC3, 2 ch) Subtitles: Russian English
VTS_07 : Play Length: 00:01:26 Video: PAL 4:3 (720x576) VBR Audio: Russian (Dolby AC3, 2 ch) Subtitles: Russian English
VTS_08 : Play Length: 00:01:10 Video: PAL 4:3 (720x576) VBR Audio: Russian (Dolby AC3, 3 ch) Subtitles: Russian English
VTS_09 : Play Length: 00:01:10 Video: PAL 4:3 (720x576) VBR Audio: Russian (Dolby AC3, 6 ch) Subtitles: Russian English
VTS_10 : Play Length: 00:01:00 Video: PAL 4:3 (720x576) VBR Audio: Russian (Dolby AC3, 2 ch)
* Menus Information *
VIDEO_TS MenuVideo: NTSC 4:3 (720x480) VBR Auto Pan&Scan, Auto LetterboxedEnglish Language Unit : Title Menu
VTS_01 MenuVideo: PAL 4:3 (720x576) VBRAudio: Not specified (Dolby AC3, 2 ch)English Language Unit : Root Menu
VTS_02 MenuVideo: PAL 4:3 (720x576) VBREnglish Language Unit : Root Menu
VTS_03 MenuVideo: PAL 4:3 (720x576) VBREnglish Language Unit : Root Menu
VTS_04 MenuVideo: PAL 4:3 (720x576) VBREnglish Language Unit : Root Menu
VTS_05 MenuVideo: PAL 4:3 (720x576) VBREnglish Language Unit : Root Menu
VTS_06 MenuVideo: PAL 4:3 (720x576) VBREnglish Language Unit : Root Menu
VTS_07 MenuVideo: PAL 4:3 (720x576) VBREnglish Language Unit : Root Menu
VTS_08 MenuVideo: PAL 4:3 (720x576) VBREnglish Language Unit : Root Menu
VTS_09 MenuVideo: PAL 4:3 (720x576) VBREnglish Language Unit : Root Menu
VTS_10 MenuVideo: PAL 4:3 (720x576) VBREnglish Language Unit : Root Menu

MediaInfo

ОбщееПолное имя : E:\FILMS\Похороните меня за плинтусом\VIDEO_TS\VTS_03_1.VOBФормат : MPEG-PSРазмер файла : 1024 МбайтПродолжительность : 20 м.Общий поток : 6826 Кбит/сек
ВидеоИдентификатор : 224 (0xE0)Формат : MPEG VideoВерсия формата : Version 2Профиль формата : Main@MainПараметр BVOP формата : ДаПараметр матрицы формата : По умолчаниюПараметр GOP формата : VariableПродолжительность : 20 м.Битрейт : 6000 Кбит/секШирина : 720 пикселейВысота : 576 пикселейСоотношение сторон : 4:3Частота кадров : 25,000 кадров/секСтандарт вещания : PALЦветовое пространство : YUVСубдискретизация насыщенности : 4:2:0Битовая глубина : 8 битТип развёртки : ЧересстрочнаяПорядок развёртки : Верхнее поле первоеМетод сжатия : С потерямиБит/(Пиксели*Кадры) : 0.579Размер потока : 903 Мбайт (88%)
Аудио #1Идентификатор : 189 (0xBD)-128 (0x80)Формат : AC-3Формат/Информация : Audio Coding 3Расширение режима : CM (complete main)Параметр Endianness формата : BigРежим смешивания : DVD-VideoПродолжительность : 20 м.Вид битрейта : ПостоянныйБитрейт : 448 Кбит/секКаналы : 6 каналовРасположение каналов : Front: L C R, Side: L R, LFEЧастота : 48,0 КГцБитовая глубина : 16 битМетод сжатия : С потерямиЗадержка видео : -80 мс.Размер потока : 67,2 Мбайт (7%)
Аудио #2Идентификатор : 189 (0xBD)-129 (0x81)Формат : AC-3Формат/Информация : Audio Coding 3Расширение режима : CM (complete main)Параметр Endianness формата : BigРежим смешивания : DVD-VideoПродолжительность : 20 м.Вид битрейта : ПостоянныйБитрейт : 224 Кбит/секКаналы : 2 каналаРасположение каналов : Front: L RЧастота : 48,0 КГцБитовая глубина : 16 битМетод сжатия : С потерямиЗадержка видео : -80 мс.Размер потока : 33,6 Мбайт (3%)
Текст #1Идентификатор : 189 (0xBD)-32 (0x20)Формат : RLEФормат/Информация : Run-length encodingРежим смешивания : DVD-VideoЗадержка видео : 240 мс.
Текст #2Идентификатор : 189 (0xBD)-33 (0x21)Формат : RLEФормат/Информация : Run-length encodingРежим смешивания : DVD-VideoЗадержка видео : 240 мс.
Текст #3Идентификатор : 189 (0xBD)-34 (0x22)Формат : RLEФормат/Информация : Run-length encodingРежим смешивания : DVD-VideoЗадержка видео : 240 мс.
Текст #4Идентификатор : 189 (0xBD)-35 (0x23)Формат : RLEФормат/Информация : Run-length encodingРежим смешивания : DVD-VideoЗадержка видео : 240 мс.
Текст #5Идентификатор : 189 (0xBD)-36 (0x24)Формат : RLEФормат/Информация : Run-length encodingРежим смешивания : DVD-VideoЗадержка видео : 240 мс.
Текст #6Идентификатор : 189 (0xBD)-37 (0x25)Формат : RLEФормат/Информация : Run-length encodingРежим смешивания : DVD-VideoЗадержка видео : 240 мс.
Меню

Скриншоты менюРусские


Английские


Скриншоты


Скриншоты доп. материалов


Обложка и диск

[Профиль] [ЛС]
Показать сообщения:    

Текущее время: Сегодня 08:56

Часовой пояс: GMT



Вы не можете начинать темы
Вы не можете отвечать на сообщения
Вы не можете редактировать свои сообщения
Вы не можете удалять свои сообщения
Вы не можете голосовать в опросах
Вы не можете прикреплять файлы к сообщениям
Вы не можете скачивать файлы