Похождения Чичикова: Манилов (Борис Степанцев) [1974, Кукольная анимация, DVB]

 
Автор Сообщение

TorrentFilm ®

Пол:

Стаж: 2 года

Сообщений: 7741



Награды: Нет

Торрент-статистика

Создавать темы 24-Янв-2016 00:08

[Цитировать]

Похождения Чичикова: Манилов
Жанр: Кукольная анимация
Год выпуска: 1974
Продолжительность: 00:09:30
Режиссёр: Борис Степанцев
Описание: По роману Н.В. Гоголя «Мёртвые души».
1. Хитрый Чичиков в гостях у барина Манилова, витающего в облаках, строящего воздушные замки, запустившего своё хозяйство.
Доп. информация:

Трансляция спутникового канала: "Детский мир"
Качество видео: DVB
Формат видео: MPEG-PS
Видео: MPEG2 Video, 704x576, 25 fps, 2700 kbps
Аудио: MPEG Audio, 2 сh, 48 kHz, 192 kbps

MediaInfo

General
Complete name : D:\Похождения Чичикова. Манилов. (1974)_DVB by SLuMeP.mpg
Format : MPEG-PS
File size : 200 MiB
Duration : 9mn 30s
Overall bit rate mode : Variable
Overall bit rate : 2 937 Kbps
Video
ID : 224 (0xE0)
Format : MPEG Video
Format version : Version 2
Format profile : Main@Main
Format settings, BVOP : Yes
Format settings, Matrix : Custom
Format settings, GOP : Variable
Format settings, picture st : Frame
Duration : 9mn 30s
Bit rate mode : Variable
Bit rate : 2 687 Kbps
Maximum bit rate : 5 000 Kbps
Width : 704 pixels
Height : 576 pixels
Display aspect ratio : 4:3
Frame rate : 25.000 fps
Standard : PAL
Color space : YUV
Chroma subsampling : 4:2:0
Bit depth : 8 bits
Scan type : Interlaced
Scan order : Top Field First
Compression mode : Lossy
Bits/(Pixel*Frame) : 0.265
Time code of first frame : 00:00:00:00
Time code source : Group of pictures header
GOP, Open/Closed : Open
Stream size : 183 MiB (91%)
GOP, Open/Closed of first f : Closed
Audio
ID : 192 (0xC0)
Format : MPEG Audio
Format version : Version 1
Format profile : Layer 2
Duration : 9mn 30s
Bit rate mode : Constant
Bit rate : 192 Kbps
Channel(s) : 2 channels
Sampling rate : 48.0 KHz
Compression mode : Lossy
Stream size : 13.0 MiB (7%)

Скриншоты


[Профиль] [ЛС]
Кто просматривает тему:

Форум Тема Автор Размер
Мировая классика Ален Рене Лесаж - Похождения Жиль Бласа из Сантильяны [Иванова Маргарита, 2013] Magnat 1.53 GB
Мультфильмы СССР Великолепный Гоша / Похождения Гоши Великолепного [01-10 из 10] (1981-1985) DVDRip-AVC Белочка 1.19 GB
Фильмы 2014 года Дорогая, похоже, я тебя убил / Kochanie, chyba cię zabiłem (Куба Несьчеров / Kuba Nieścierow) [2014, Польша, черная комедия, DVDRip] Sub Rus (Professor) + Original Pol painkiller 1.56 GB
Фильмы (HD Rips | 720p, 1080p) Дорогая, похоже, я тебя убил / Kochanie, chyba cie zabilem (2014) HDTVRip 1080 | L1 BOSS 3.26 GB
Фильмы 2015 года Любовь похожа на тебя / Ask Sana Benzer (2015) DVDRip | L2 достали все 1.46 GB
Отечественные мультфильмы Мышонок, который хотел быть похожим на человека (Леонид Зарубин) [1973 г., кукольный мультфильм, DVB] painkiller 246 MB
Отечественные мультфильмы Похождения бравого солдата Швейка (Ринат Газизов, Манук Депоян) [2009, мультфильм, комедия, для взрослых, военный, DVDRip] reversefile 1.1 GB
Отечественные мультфильмы Похождения бравого солдата Швейка / The Good Soldier Shweik (Ринат Газизов, Манук Депоян / Rinat Gazizov, Manuk Depoyan) [2009, мультфильм, комедия, для взрослых, военный, DVDRip-AVC] reversefile 747 MB
Показать сообщения:    

Текущее время: Сегодня 06:13

Часовой пояс: GMT



Вы не можете начинать темы
Вы не можете отвечать на сообщения
Вы не можете редактировать свои сообщения
Вы не можете удалять свои сообщения
Вы не можете голосовать в опросах
Вы не можете прикреплять файлы к сообщениям
Вы не можете скачивать файлы