Похождения Мюнхгаузена (со звуком) (Даниил Черкес) [1929, Рисованный мультфильм, DVDRip]

 
Автор Сообщение

TorrentFilm ®

Пол:

Стаж: 2 года

Сообщений: 7741



Награды: Нет

Торрент-статистика

Создавать темы 15-Окт-2015 00:09

[Цитировать]

Похождения Мюнхгаузена (со звуком)
Страна: СССР
Жанр: Рисованный мультфильм
Продолжительность: 00:18:14
Год выпуска: 1929
Русские субтитры: нет
Режиссёр: Даниил Черкес
Описание: Первая отечественная анимационная версия книги Рудольфа Эриха Распе о великом выдумщике. Барон Мюнхгаузен, известный хвастун и враль, спрыгивает с титульного листа своих «Воспоминаний» и начинает рассказ о необычайных приключениях, которые случились с ним во время охоты за хитрой лисой.
Доп. информация:
" Межрабпом-Фильм"
Звуковое сопровождение: записи ансамбля электромузыкальных инструментов под управлением Вячеслава Валериановича Мещерина
Сценарий:Н.Сац,Д.Черкес
Художники:И.Иванов-Вано,В Сутеев,В.Валерианова.
Раздача группы:
РИП и компиляция звукового сопровождения by Suetorp
Качество: DVDRip
Формат: AVI
Видео: 720x560 (1.29:1), 25 fps, XviD build 62 ~2496 kbps avg, 0.25 bit/pixel
Аудио: 48 kHz, MPEG Layer 3, 2 ch, ~320.00 kbps avg
Субтитры: Интертитры

Подробные технические данные

Format : AVIFormat/Info : Audio Video InterleaveFile size : 368 MiBDuration : 18mn 14sOverall bit rate : 2 824 Kbps
VideoID : 0Format : MPEG-4 VisualFormat profile : Advanced Simple@L5Format settings, BVOP : NoFormat settings, QPel : NoFormat settings, GMC : No warppointsFormat settings, Matrix : Default (H.263)Codec ID : XVIDCodec ID/Hint : XviDDuration : 18mn 14sBit rate : 2 496 KbpsWidth : 720 pixelsHeight : 560 pixelsDisplay aspect ratio : 1.286Frame rate : 25.000 fpsColor space : YUVChroma subsampling : 4:2:0Bit depth : 8 bitsScan type : ProgressiveCompression mode : LossyBits/(Pixel*Frame) : 0.248Stream size : 326 MiB (88%)Writing library : XviD 62
AudioID : 1Format : MPEG AudioFormat version : Version 1Format profile : Layer 3Codec ID : 55Codec ID/Hint : MP3Duration : 18mn 14sBit rate mode : ConstantBit rate : 320 KbpsChannel(s) : 2 channelsSampling rate : 48.0 KHzCompression mode : LossyStream size : 41.8 MiB (11%)Alignment : Aligned on interleavesInterleave, duration : 80 ms (2.00 video frames)Writing library : LAMELAME_MAJOR_VERSI

от автора рипа

«Какое созвездие имён: Даниил Черкес, Наталия Сац, Владимир Сутеев, Иван Иванов-Вано, Вера Валерианова. Такое сокровище - и без звука! Непорядок... Исправил, как мог.
При звуковом оформлении, с огромным удовольствием воспользовался записями ансамбля электромузыкальных инструментов под управлением Вячеслава Валериановича Мещерина.»

Скриншоты

[Профиль] [ЛС]
Кто просматривает тему:

Форум Тема Автор Размер
Мировая классика Ален Рене Лесаж - Похождения Жиль Бласа из Сантильяны [Иванова Маргарита, 2013] Magnat 1.53 GB
Мультфильмы СССР Великолепный Гоша / Похождения Гоши Великолепного [01-10 из 10] (1981-1985) DVDRip-AVC Белочка 1.19 GB
Фильмы 2014 года Дорогая, похоже, я тебя убил / Kochanie, chyba cię zabiłem (Куба Несьчеров / Kuba Nieścierow) [2014, Польша, черная комедия, DVDRip] Sub Rus (Professor) + Original Pol painkiller 1.56 GB
Фильмы (HD Rips | 720p, 1080p) Дорогая, похоже, я тебя убил / Kochanie, chyba cie zabilem (2014) HDTVRip 1080 | L1 BOSS 3.26 GB
Фильмы 2015 года Любовь похожа на тебя / Ask Sana Benzer (2015) DVDRip | L2 достали все 1.46 GB
Отечественные мультфильмы Мышонок, который хотел быть похожим на человека (Леонид Зарубин) [1973 г., кукольный мультфильм, DVB] painkiller 246 MB
Отечественные мультфильмы Похождения бравого солдата Швейка (Ринат Газизов, Манук Депоян) [2009, мультфильм, комедия, для взрослых, военный, DVDRip] reversefile 1.1 GB
Отечественные мультфильмы Похождения бравого солдата Швейка / The Good Soldier Shweik (Ринат Газизов, Манук Депоян / Rinat Gazizov, Manuk Depoyan) [2009, мультфильм, комедия, для взрослых, военный, DVDRip-AVC] reversefile 747 MB
Показать сообщения:    

Текущее время: Сегодня 01:26

Часовой пояс: GMT



Вы не можете начинать темы
Вы не можете отвечать на сообщения
Вы не можете редактировать свои сообщения
Вы не можете удалять свои сообщения
Вы не можете голосовать в опросах
Вы не можете прикреплять файлы к сообщениям
Вы не можете скачивать файлы