Похождения бравого солдата Швейка (Ринат Газизов, Манук Депоян) [2009, мультфильм, комедия, для взрослых, военный, DVDRip]

 
Автор Сообщение

reversefile ®

Пол:

Стаж: 4 года 5 месяцев

Сообщений: 842

Откуда: ReverseFile.org



Награды: Нет

Торрент-статистика

Создавать темы 21-Июл-2014 18:12

[Цитировать]

Похождения бравого солдата Швейка
Страна: Россия, Украина
Жанр: мультфильм, комедия, для взрослых, военный
Продолжительность: 01:10:22
Год выпуска: 2009
Русские субтитры: нет
Режиссёр: Ринат Газизов, Манук Депоян
Роли озвучивали: Юрий Стоянов (Швейк), Юрий Деркач (рассказчик), Гоша Куценко (Паливец), Александр Новиков (Бретшнейдер), Владислав Копп (поручик Дуб), Павел Сметанкин (поручик Лукаш), Денис Некрасов (фельдкурат Отто Кац) и др.
Описание: По мотивам юмористического романа Ярослава Гашека.
Йозефа Швейка, чешского торговца собаками, которого уже дисквалифицировали из армии, как форменного идиота, снова призывают на службу в качестве пушечного мяса во время Первой Мировой войны. Ему докучали бюрократы, полицейские, доктора и духовенство, его «продавали» от одного офицера другому, но добродушный, болтливый и бесхитростный солдат Швейк все же неохотно приближается к линии фронта и, очевидно, к верной смерти.

Доп. информация:
Производство: Арт Продакшн (Россия), Ялта-фильм (Украина), 2009-2011.
Продюсер: Андрей Новиков при участии Артура Новикова.
Автор сценария: Андрей Новиков при участии Роберт Кромби.
По мотивам юмористического романа Ярослава Гашека
Композитор: Аркадий Укупник.

Релиз
Благодарности
Рип: bankolya

Качество: DVDRip
Формат: AVI
Видео: 720x384 (1.88:1), 25 fps, XviD build 46 ~1994 kbps avg, 0.29 bit/pixel
Аудио: 48 kHz, AC3 Dolby Digital, 2/0 (L,R) ch, ~224 kbps
Субтитры: отсутствуют

Подробные технические данные

[pre]General
Complete name : I:\SHVEIK\Pohozdeniya.Bravogo.soldata.Svejka.2011.Stoyanov!.avi
Format : AVI
Format/Info : Audio Video Interleave
File size : 1,10 Гбайт
Duration : 1 ч. 10 м.
Overall bit rate : 2229 Кбит/сек
Writing application : VirtualDubMod 1.5.10.2 (build 2540/release)
Writing library : VirtualDubMod build 2540/release
Видео
ID : 0
Format : MPEG-4 Visual
Format profile : Advanced Simple@L5
Format settings, BVOP : 2
Format settings, QPel : Нет
Format settings, GMC : Без точки перехода
Format settings, Matrix : Default (H.263)
Codec ID : XVID
Codec ID/Hint : XviD
Duration : 1 ч. 10 м.
Bit rate : 1995 Кбит/сек
Width : 720 пикселей
Height : 384 пикселя
Display aspect ratio : 1,85:1
Frame rate : 25,000 кадров/сек
Color space : YUV
Chroma subsampling : 4:2:0
Bit depth : 8 бит
Scan type : Прогрессивная
Compression mode : С потерями
Bits/(Pixel*Frame) : 0.289
Stream size : 1004 Мбайт (90%)
Writing library : XviD 1.1.2 (UTC 2006-11-01)
Аудио
ID : 1
Format : AC-3
Format/Info : Audio Coding 3
Mode extension : CM (complete main)
Format settings, Endianness : Big
Codec ID : 2000
Duration : 1 ч. 10 м.
Bit rate mode : Постоянный
Bit rate : 224 Кбит/сек
Channel(s) : 2 канала
Channel positions : Front: L R
Sampling rate : 48,0 КГц
Bit depth : 16 бит
Compression mode : С потерями
Stream size : 113 Мбайт (10%)
Alignment : Разделение по промежуткам
Interleave, duration : 40 мс. (1,00 видеокадр)
Interleave, preload duration : 500 мс.

Скриншоты


[Профиль] [ЛС]
Кто просматривает тему:

Форум Тема Автор Размер
Мировая классика Ален Рене Лесаж - Похождения Жиль Бласа из Сантильяны [Иванова Маргарита, 2013] Magnat 1.53 GB
Мультфильмы СССР Великолепный Гоша / Похождения Гоши Великолепного [01-10 из 10] (1981-1985) DVDRip-AVC Белочка 1.19 GB
Фильмы 2014 года Дорогая, похоже, я тебя убил / Kochanie, chyba cię zabiłem (Куба Несьчеров / Kuba Nieścierow) [2014, Польша, черная комедия, DVDRip] Sub Rus (Professor) + Original Pol painkiller 1.56 GB
Фильмы (HD Rips | 720p, 1080p) Дорогая, похоже, я тебя убил / Kochanie, chyba cie zabilem (2014) HDTVRip 1080 | L1 BOSS 3.26 GB
Фильмы 2015 года Любовь похожа на тебя / Ask Sana Benzer (2015) DVDRip | L2 достали все 1.46 GB
Отечественные мультфильмы Мышонок, который хотел быть похожим на человека (Леонид Зарубин) [1973 г., кукольный мультфильм, DVB] painkiller 246 MB
Отечественные мультфильмы Похождения бравого солдата Швейка / The Good Soldier Shweik (Ринат Газизов, Манук Депоян / Rinat Gazizov, Manuk Depoyan) [2009, мультфильм, комедия, для взрослых, военный, DVDRip-AVC] reversefile 747 MB
Фильмы 2015 года Похождения Вареса: в поисках Шерифа / Vares Sheriffi (Ханну Салонен / Hannu Salonen) [2015, Финляндия, комедия, детектив, DVDRip] VO (Хихидок) TorrentFilm 523 MB
Показать сообщения:    

Текущее время: Сегодня 12:29

Часовой пояс: GMT



Вы не можете начинать темы
Вы не можете отвечать на сообщения
Вы не можете редактировать свои сообщения
Вы не можете удалять свои сообщения
Вы не можете голосовать в опросах
Вы не можете прикреплять файлы к сообщениям
Вы не можете скачивать файлы