Похищение Фредди Хайнекена / Kidnapping Mr. Heineken (2015) BDRip 720p | L2

 
Автор Сообщение

достали все ®

Пол:

Стаж: 1 год 8 месяцев

Сообщений: 6554



Награды: 12 (Подробнее)

Top Releaser 3 (Количество: 1) Top Releaser 2 (Количество: 1) Mega Releaser 2 (Количество: 1)
Торрент-статистика

Создавать темы 10-Апр-2015 15:33

[Цитировать]

Информация о фильме
Название: Похищение Фредди Хайнекена
Оригинальное название: Kidnapping Mr. Heineken
Страна: Бельгия, Великобритания, Нидерланды
Студия: European Film Company, Informant Europe SPRL
Жанр: Боевик, криминал
Год выпуска: 2015
Продолжительность: 01:34:44
Перевод: Любительский (двухголосый закадровый) Студия Пиратского дубляжа (Сладкая парочка)
Cубтитры: Rus, Eng
Оригинальная аудиодорожка: английский
Режиссер: Дэниэл Альфредсон / Daniel Alfredson
В ролях: Сэм Уортингтон, Энтони Хопкинс, Джим Стёрджесс, Райан Квантен, Роб Фуллер, Джемайма Уэст, Иоланта Кабау ван Касберген, Давид Денсик, Билли Слотер, Гас Родс
Описание: Осенью 1983 года Амстердам был потрясен одним из самых известных и дерзких преступлений 20 века: владелец одной из крупнейших в мире пивоварен Heineken — Альфред Хайнекен — был похищен вместе с личным шофером прямо из собственного автомобиля. Несколько друзей, которым очень нужны были деньги, решили не мелочиться и заработать много и сразу, похитив одного из самых богатых людей в стране. Проведя тщательную подготовку, свои намерения они осуществили. Преступники требовали у родственников в качестве выкупа сумасшедшую по тем временам сумму — 35 млн. голландских гульденов (около 16 млн. евро). Взамен обещали сохранить жизни обоим. Все полицейские силы Амстердама безуспешно пытались выйти на след похитителей, но те действовали безошибочно… Хайнекен провел 20 чудовищных дней, прикованный цепью к стене, в специально оборудованной звуконепроницаемой камере. Даже в таких нечеловеческих условиях, Фредди не ломается, он вступает в психологический поединок с главарем банды и побеждает. Однако, выиграть психологическую схватку и выжить — это две большие разницы. После получения требуемой суммы мошенники решают скрыться, оставив жертвы медленно умирать на привязи.

Тип релиза: BDRip 720p
Контейнер: MKV
Видео: MPEG-4 AVC, 8671 Кбит/с, 1280x536, 23,976 fps
Аудио: Rus, AC3, 128 kb/s (2 ch), 48 kHz
Аудио 2: Eng, AC3, 448 kb/s (6 ch), 48 kHz
Формат субтитров: softsub (SRT)

MediaInfo

x264 [info]: frame I:769 Avg QP:16.15 size:106713
x264 [info]: frame P:27097 Avg QP:17.84 size: 68408
x264 [info]: frame B:108425 Avg QP:19.97 size: 40184
Format : Matroska
Format version : Version 4 / Version 2
File size : 6.24 GiB
Duration : 1h 34mn
Overall bit rate : 9 434 Kbps
Movie name : Похищение Фредди Хайнекена. (Tonik)
Encoded date : UTC 2015-03-30 12:43:42
Writing application : mkvmerge v7.1.0 ('Good Love') 64bit built on Jul 27 2014 13:06:55
Writing library : libebml v1.3.0 + libmatroska v1.4.1
DURATION : 01:34:44.448000000
NUMBER_OF_FRAMES : 177639
NUMBER_OF_BYTES : 90951168
_STATISTICS_WRITING_APP : mkvmerge v7.1.0 ('Good Love') 64bit built on Jul 27 2014 13:06:55
_STATISTICS_WRITING_DATE_UTC : 2015-03-30 12:43:42
_STATISTICS_TAGS : BPS DURATION NUMBER_OF_FRAMES NUMBER_OF_BYTES
Video
ID : 1
Format : AVC
Format/Info : Advanced Video Codec
Format profile : High@L4.1
Format settings, CABAC : Yes
Format settings, ReFrames : 12 frames
Codec ID : V_MPEG4/ISO/AVC
Duration : 1h 34mn
Bit rate : 8 671 Kbps
Width : 1 280 pixels
Height : 536 pixels
Display aspect ratio : 2.40:1
Frame rate mode : Constant
Frame rate : 23.976 fps
Color space : YUV
Chroma subsampling : 4:2:0
Bit depth : 8 bits
Scan type : Progressive
Bits/(Pixel*Frame) : 0.527
Stream size : 5.74 GiB (92%)
Title : Tonik
Writing library : x264 core 146 r2538 121396c
Encoding settings : cabac=1 / ref=12 / deblock=1:-3:-3 / analyse=0x3:0x133 / me=umh / subme=11 / psy=1 / psy_rd=1.00:0.00 / mixed_ref=1 / me_range=32 / chroma_me=1 / trellis=2 / 8x8dct=1 / cqm=0 / deadzone=21,11 / fast_pskip=0 / chroma_qp_offset=-2 / threads=12 / lookahead_threads=3 / sliced_threads=0 / nr=0 / decimate=1 / interlaced=0 / bluray_compat=0 / constrained_intra=0 / bframes=11 / b_pyramid=2 / b_adapt=2 / b_bias=0 / direct=1 / weightb=1 / open_gop=0 / weightp=2 / keyint=250 / keyint_min=23 / scenecut=40 / intra_refresh=0 / rc=crf / mbtree=0 / crf=18.5 / qcomp=0.60 / qpmin=0 / qpmax=69 / qpstep=4 / ip_ratio=1.40 / pb_ratio=1.30 / aq=1:1.00
Language : English
Default : Yes
Forced : No
DURATION : 01:34:44.476000000
NUMBER_OF_FRAMES : 136291
NUMBER_OF_BYTES : 6292639224
_STATISTICS_WRITING_APP : mkvmerge v7.1.0 ('Good Love') 64bit built on Jul 27 2014 13:06:55
_STATISTICS_WRITING_DATE_UTC : 2015-03-30 12:43:42
_STATISTICS_TAGS : BPS DURATION NUMBER_OF_FRAMES NUMBER_OF_BYTES
Audio #1
ID : 2
Format : AC-3
Format/Info : Audio Coding 3
Mode extension : CM (complete main)
Format settings, Endianness : Big
Codec ID : A_AC3
Duration : 1h 34mn
Bit rate mode : Constant
Bit rate : 128 Kbps
Channel(s) : 2 channels
Channel positions : Front: L R
Sampling rate : 48.0 KHz
Bit depth : 16 bits
Compression mode : Lossy
Stream size : 86.7 MiB (1%)
Title : DVO
Language : Russian
Default : Yes
Forced : No
Audio #2
ID : 3
Format : AC-3
Format/Info : Audio Coding 3
Mode extension : CM (complete main)
Format settings, Endianness : Big
Codec ID : A_AC3
Duration : 1h 34mn
Bit rate mode : Constant
Bit rate : 448 Kbps
Channel(s) : 6 channels
Channel positions : Front: L C R, Side: L R, LFE
Sampling rate : 48.0 KHz
Bit depth : 16 bits
Compression mode : Lossy
Stream size : 304 MiB (5%)
Language : English
Default : No
Forced : No
Text #1
ID : 4
Format : UTF-8
Codec ID : S_TEXT/UTF8
Codec ID/Info : UTF-8 Plain Text
Language : Russian
Default : No
Forced : No
Text #2
ID : 5
Format : UTF-8
Codec ID : S_TEXT/UTF8
Codec ID/Info : UTF-8 Plain Text
Language : English
Default : No
Forced : No

Скриншоты

[Профиль] [ЛС]
Кто просматривает тему:

Форум Тема Автор Размер
Фантастика и фэнтези Иван-царевич и С. Волк 2. Похищение Елены (Багдерина Светлана) [2015, Юмористическая фантастика, аудиокнига, MP3, 128 kbps, Eolla] Magnat 1.19 GB
Отечественные cериалы Похищение Евы [01-04 из 04] (2015) SATRip достали все 2.15 GB
Фильмы 2015 года Похищение мистера Хайнекена / Kidnapping Mr. Heineken (Даниэль Альфредсон / Daniel Alfredson) [2015, Нидерланды / Великобритания / Бельгия, Драма / Криминал / Триллер, DVDScreener] AVO (А. Глинский)... TorrentFilm 1.49 GB
Фильмы (HD Rips | 720p, 1080p) Похищение Фредди Хайнекена / Kidnapping Mr. Heineken (2015) BDRip 720p | D | Чистый звук достали все 4.45 GB
Фильмы 2015 года Похищение Фредди Хайнекена / Kidnapping Mr. Heineken (Даниэль Альфредсон / Daniel Alfredson) [2015, Бельгия, Великобритания, Нидерланды, Боевик, триллер, драма, криминал, HDRip] Dub TorrentFilm 743 MB
Фильмы 2015 года Похищение Фредди Хайнекена / Kidnapping Mr. Heineken (Даниэль Альфредсон / Daniel Alfredson) [2015, Бельгия, Великобритания, Нидерланды, Боевик, триллер, драма, криминал, HDRip] Dub (чистый звук) TorrentFilm 1.37 GB
Фильмы 2015 года Похищение Фредди Хайнекена / Kidnapping Mr. Heineken (Даниэль Альфредсон / Daniel Alfredson) [2015, Нидерланды, Великобритания, Бельгия, триллер, драма, криминал, HDRip] Dub TorrentFilm 1.45 GB
Фильмы 2015 года Похищение Фредди Хайнекена / Kidnapping Mr. Heineken (Дэниэл Альфредсон / Daniel Alfredson) [2015, Бельгия, Великобритания, Нидерланды, боевик, триллер, драма, криминал, WEB-DLRip] DVO TorrentFilm 745 MB
Показать сообщения:    

Текущее время: Сегодня 14:52

Часовой пояс: GMT



Вы не можете начинать темы
Вы не можете отвечать на сообщения
Вы не можете редактировать свои сообщения
Вы не можете удалять свои сообщения
Вы не можете голосовать в опросах
Вы не можете прикреплять файлы к сообщениям
Вы не можете скачивать файлы