Похищение Фредди Хайнекена / Kidnapping Mr. Heineken (Дэниэл Альфредсон / Daniel Alfredson) [2015, Бельгия, Великобритания, Нидерланды, боевик, триллер, драма, криминал, WEB-DLRip] DVO

 
Автор Сообщение

TorrentFilm ®

Пол:

Стаж: 2 года

Сообщений: 7741



Награды: Нет

Торрент-статистика

Создавать темы 14-Мар-2015 00:02

[Цитировать]

Похищение Фредди Хайнекена / Kidnapping Mr. Heineken
Страна: Бельгия, Великобритания, Нидерланды
Жанр: боевик, триллер, драма, криминал
Год выпуска: 2015
Продолжительность: 01:34:45
Перевод: Любительский (двухголосый закадровый)
Cубтитры: нет
Режиссер: Дэниэл Альфредсон / Daniel Alfredson
В ролях: Сэм Уортингтон, Энтони Хопкинс, Джим Стёрджесс, Райан Квантен, Роб Фуллер, Джемайма Уэст, Иоланта Кабау ван Касберген, Давид Денсик, Билли Слотер, Гас Родс
Описание: Осенью 1983 года Амстердам был потрясен одним из самых известных и дерзких преступлений 20 века: владелец одной из крупнейших в мире пивоварен Heineken — Альфред Хайнекен — был похищен вместе с личным шофером прямо из собственного автомобиля. Хайнекен провел 20 чудовищных дней, прикованный цепью к стене, в специально оборудованной звуконепроницаемой камере. Даже в таких нечеловеческих условиях, Фредди не ломается, он вступает в психологический поединок с главарем банды и побеждает. Однако, выиграть психологическую схватку и выжить — это две большие разницы. После получения требуемой суммы мошенники решают скрыться, оставив жертвы медленно умирать на привязи.
Сэмпл: http://multi-up.com/1037747
Качество видео: WEB-DLRip
Формат видео: AVI
Видео: 688x288 (2.39:1), 23.976 fps, XviD build 73 ~961 kbps avg, 0.20 bit/pixel
Аудио: 48 kHz, MPEG Layer 3, 2 ch, ~128.00 kbps avg

MediaInfo

Формат : AVI
Формат/Информация : Audio Video Interleave
Размер файла : 745 Мбайт
Продолжительность : 1 ч. 34 м.
Общий поток : 1098 Кбит/сек
Программа кодирования : VirtualDubMod 1.5.10.3 | (build 2550/release)
Библиотека кодирования : VirtualDubMod build 2550/release
Видео
Идентификатор : 0
Формат : MPEG-4 Visual
Профиль формата : Advanced Simple@L5
Параметр BVOP формата : 1
Параметр QPel формата : Нет
Параметр GMC формата : Без точки перехода
Параметр матрицы формата : Выборочная
Идентификатор кодека : XVID
Идентификатор кодека/Подсказка : XviD
Продолжительность : 1 ч. 34 м.
Битрейт : 961 Кбит/сек
Ширина : 688 пикс.
Высота : 288 пикс.
Соотношение сторон : 2,40:1
Частота кадров : 23,976 кадр/сек
Цветовое пространство : YUV
Подвыборка цветности : 4:2:0
Битовая глубина : 8 бит
Тип развёртки : Прогрессивная
Метод сжатия : С потерями
Бит/(Пиксели*Кадры) : 0.202
Размер потока : 652 Мбайт (88%)
Библиотека кодирования : XviD 73
Аудио
Идентификатор : 1
Формат : MPEG Audio
Версия формата : Version 1
Профиль формата : Layer 3
Идентификатор кодека : 55
Идентификатор кодека/Подсказка : MP3
Продолжительность : 1 ч. 34 м.
Вид битрейта : Постоянный
Битрейт : 128 Кбит/сек
Каналы : 2 канала
Частота : 48,0 КГц
Метод сжатия : С потерями
Размер потока : 86,7 Мбайт (12%)
Выравнивание : Соединение по промежуткам
Продолжительность промежутка : 42 мс. (1,00 видеокадр)
Время предзагрузки промежутка : 504 ms
Библиотека кодирования : LAME3.99r
Настройки программы : -m s -V 4 -q 2 -lowpass 17 -b 128

Скриншоты

[Профиль] [ЛС]
Кто просматривает тему:

Форум Тема Автор Размер
Фантастика и фэнтези Иван-царевич и С. Волк 2. Похищение Елены (Багдерина Светлана) [2015, Юмористическая фантастика, аудиокнига, MP3, 128 kbps, Eolla] Magnat 1.19 GB
Отечественные cериалы Похищение Евы [01-04 из 04] (2015) SATRip достали все 2.15 GB
Фильмы 2015 года Похищение мистера Хайнекена / Kidnapping Mr. Heineken (Даниэль Альфредсон / Daniel Alfredson) [2015, Нидерланды / Великобритания / Бельгия, Драма / Криминал / Триллер, DVDScreener] AVO (А. Глинский)... TorrentFilm 1.49 GB
Фильмы (HD Rips | 720p, 1080p) Похищение Фредди Хайнекена / Kidnapping Mr. Heineken (2015) BDRip 720p | D | Чистый звук достали все 4.45 GB
Фильмы (HD Rips | 720p, 1080p) Похищение Фредди Хайнекена / Kidnapping Mr. Heineken (2015) BDRip 720p | L2 достали все 6.24 GB
Фильмы 2015 года Похищение Фредди Хайнекена / Kidnapping Mr. Heineken (Даниэль Альфредсон / Daniel Alfredson) [2015, Бельгия, Великобритания, Нидерланды, Боевик, триллер, драма, криминал, HDRip] Dub TorrentFilm 743 MB
Фильмы 2015 года Похищение Фредди Хайнекена / Kidnapping Mr. Heineken (Даниэль Альфредсон / Daniel Alfredson) [2015, Бельгия, Великобритания, Нидерланды, Боевик, триллер, драма, криминал, HDRip] Dub (чистый звук) TorrentFilm 1.37 GB
Фильмы 2015 года Похищение Фредди Хайнекена / Kidnapping Mr. Heineken (Даниэль Альфредсон / Daniel Alfredson) [2015, Нидерланды, Великобритания, Бельгия, триллер, драма, криминал, HDRip] Dub TorrentFilm 1.45 GB
Показать сообщения:    

Текущее время: Сегодня 09:06

Часовой пояс: GMT



Вы не можете начинать темы
Вы не можете отвечать на сообщения
Вы не можете редактировать свои сообщения
Вы не можете удалять свои сообщения
Вы не можете голосовать в опросах
Вы не можете прикреплять файлы к сообщениям
Вы не можете скачивать файлы