Потеря надежды / Hope Lost (2015) BDRip 720p | P

 
Автор Сообщение

BOSS ®

Пол:

Стаж: 2 года 8 месяцев

Сообщений: 5869

Откуда: ODESSA



Награды: 20 (Подробнее)

Mega Seeder 1 (Количество: 1) Mega Seeder 2 (Количество: 1) Mega Releaser 2 (Количество: 1)
Торрент-статистика

Создавать темы 14-Мар-2016 17:57

[Цитировать]

Информация о фильме
Название: Потеря надежды
Оригинальное название: Hope Lost
Год выхода: 2015
Жанр: триллер, драма
Режиссер: Дэвид Петруччи
В ролях: Дэнни Трехо, Миша Бартон, Майкл Мэдсен, Дэниэл Болдуин, Андрей Чернышов, Diego Pagotto, Франческа Агостини, Алессия Наварро, Дино Джарруссо, Франческо Аквароли
О фильме: Юная София мечтает о карьере модели и, казалось бы, ее желания воплощаются, когда в баре она встречает кинопродюсера, к которому она ходила на прослушивание. Тот предлагает ей поехать в Италию для съемок фильма - и девушка соглашается, не знаю, что попадет прямиком в Ад.

Выпущено: Италия / Ambi Pictures, Iervolino Turco
Продолжительность: 01:34:25
Озвучивание: Профессиональное (многоголосое) [Официальный звук]
Файл
Формат: MKV
Качество: BDRip 720p
Видео: MPEG-4 AVC, 5099 kb/s, 1280x536
Аудио: Russian: AC3, 384 kb/s (2 ch) / English: DTS, 1509 kb/s (6 ch)

MI

Format : Matroska
Format version : Version 2
File size : 4.61 GiB
Duration : 1h 34mn
Overall bit rate : 6 992 Kbps
Encoded date : UTC 2016-03-14 14:15:59
Writing application : mkvmerge v7.8.0 ('River Man') 32bit built on Apr 3 2015 12:11:22
Writing library : libebml v1.3.1 + libmatroska v1.4.2
Video
ID : 1
Format : AVC
Format/Info : Advanced Video Codec
Format profile : High@L4.1
Format settings, CABAC : Yes
Format settings, ReFrames : 5 frames
Codec ID : V_MPEG4/ISO/AVC
Duration : 1h 34mn
Bit rate : 5 099 Kbps
Width : 1 280 pixels
Height : 536 pixels
Display aspect ratio : 2.40:1
Frame rate mode : Constant
Frame rate : 23.976 fps
Color space : YUV
Chroma subsampling : 4:2:0
Bit depth : 8 bits
Scan type : Progressive
Bits/(Pixel*Frame) : 0.310
Stream size : 3.27 GiB (71%)
Writing library : x264 core 146 r2538 121396c
Encoding settings : cabac=1 / ref=5 / deblock=1:0:0 / analyse=0x3:0x113 / me=umh / subme=8 / psy=1 / psy_rd=1.00:0.00 / mixed_ref=1 / me_range=16 / chroma_me=1 / trellis=1 / 8x8dct=1 / cqm=0 / deadzone=21,11 / fast_pskip=0 / chroma_qp_offset=-2 / threads=12 / lookahead_threads=2 / sliced_threads=0 / nr=0 / decimate=1 / interlaced=0 / bluray_compat=0 / constrained_intra=0 / bframes=3 / b_pyramid=2 / b_adapt=2 / b_bias=0 / direct=3 / weightb=1 / open_gop=0 / weightp=2 / keyint=250 / keyint_min=23 / scenecut=40 / intra_refresh=0 / rc_lookahead=50 / rc=2pass / mbtree=1 / bitrate=5099 / ratetol=1.0 / qcomp=0.60 / qpmin=0 / qpmax=69 / qpstep=4 / cplxblur=20.0 / qblur=0.5 / ip_ratio=1.40 / aq=1:1.00
Language : English
Default : Yes
Forced : No
Audio #1
ID : 2
Format : AC-3
Format/Info : Audio Coding 3
Mode extension : CM (complete main)
Format settings, Endianness : Big
Codec ID : A_AC3
Duration : 1h 34mn
Bit rate mode : Constant
Bit rate : 384 Kbps
Channel(s) : 2 channels
Channel positions : Front: L R
Sampling rate : 48.0 KHz
Bit depth : 16 bits
Compression mode : Lossy
Stream size : 259 MiB (5%)
Language : Russian
Default : Yes
Forced : No
Audio #2
ID : 3
Format : DTS
Format/Info : Digital Theater Systems
Mode : 16
Format settings, Endianness : Big
Codec ID : A_DTS
Duration : 1h 34mn
Bit rate mode : Constant
Bit rate : 1 509 Kbps
Channel(s) : 6 channels
Channel positions : Front: L C R, Side: L R, LFE
Sampling rate : 48.0 KHz
Bit depth : 24 bits
Compression mode : Lossy
Stream size : 1 019 MiB (22%)
Language : English
Default : No
Forced : No
Menu
00:00:00.000 : en:00:00:00.000
00:03:58.655 : en:00:03:58.655
00:13:09.539 : en:00:13:09.539
00:20:17.508 : en:00:20:17.508
00:30:55.645 : en:00:30:55.645
00:36:01.034 : en:00:36:01.034
00:43:39.492 : en:00:43:39.492
00:50:44.792 : en:00:50:44.792
00:59:33.195 : en:00:59:33.195
01:07:30.338 : en:01:07:30.338
01:15:53.340 : en:01:15:53.340
01:24:13.715 : en:01:24:13.715
01:30:20.248 : en:01:30:20.248

Скриншоты



[Профиль] [ЛС]
Кто просматривает тему:

Показать сообщения:    

Текущее время: Сегодня 22:41

Часовой пояс: GMT



Вы не можете начинать темы
Вы не можете отвечать на сообщения
Вы не можете редактировать свои сообщения
Вы не можете удалять свои сообщения
Вы не можете голосовать в опросах
Вы не можете прикреплять файлы к сообщениям
Вы не можете скачивать файлы