Потеря надежды / Hope Lost (Дэвид Петруччи / David Petrucci) [2015, Италия, триллер, драма, HDRip] MVO

 
Автор Сообщение

TorrentFilm ®

Пол:

Стаж: 2 года

Сообщений: 7741



Награды: Нет

Торрент-статистика

Создавать темы 20-Авг-2015 00:10

[Цитировать]

Потеря надежды / Hope Lost
Страна: Италия
Жанр: триллер, драма
Год выпуска: 2015
Продолжительность: 01:34:25
Перевод: Любительский (многоголосый закадровый)
Cубтитры: нет
Режиссер: Дэвид Петруччи / David Petrucci
В ролях: Дэнни Трехо, Миша Бартон, Майкл Мэдсен, Дэниэл Болдуин, Андрей Чернышов, Диего Паготто, Франческа Агостини, Алессия Наварро, Дино Джарруссо, Франческо Аквароли
Описание: Юная София мечтает о карьере модели и, казалось бы, ее желания воплощаются, когда в баре она встречает кинопродюсера, к которому она ходила на прослушивание. Тот предлагает ей поехать в Италию для съемок фильма - и девушка соглашается, не знаю, что попадет прямиком в Ад.
Сэмпл
Качество видео: HDRip
Формат видео: AVI
Видео: 1797 Кбит/сек 720 x 304 (2.368) 23.976
Аудио: AC-3 384 Кбит/сек 6 каналов, 48,0 КГц
Доп. инфо: Присутствует ненормативная лексика

MediaInfo

Общее
Полное имя : F:\Потеря надежды - 2015.avi
Формат : AVI
Формат/Информация : Audio Video Interleave
Размер файла : 1,44 Гбайт
Продолжительность : 1 ч. 34 м.
Общий поток : 2190 Кбит/сек
Программа кодирования : VirtualDubMod 1.5.10.3 | www.virtualdub-fr.org || (build 2550/release)
Библиотека кодирования : VirtualDubMod build 2550/release
Видео
Идентификатор : 0
Формат : MPEG-4 Visual
Профиль формата : Advanced Simple@L5
Параметр BVOP формата : 1
Параметр QPel формата : Нет
Параметр GMC формата : Без точки перехода
Параметр матрицы формата : Выборочная
Идентификатор кодека : XVID
Идентификатор кодека/Подсказка : XviD
Продолжительность : 1 ч. 34 м.
Битрейт : 1797 Кбит/сек
Ширина : 720 пикселей
Высота : 304 пикселя
Соотношение сторон : 2,35:1
Частота кадров : 23,976 кадра/сек
Цветовое пространство : YUV
Субдискретизация насыщенности : 4:2:0
Битовая глубина : 8 бит
Тип развёртки : Прогрессивная
Метод сжатия : С потерями
Бит/(Пиксели*Кадры) : 0.342
Размер потока : 1,19 Гбайт (82%)
Библиотека кодирования : XviD 73
Аудио
Идентификатор : 1
Формат : AC-3
Формат/Информация : Audio Coding 3
Расширение режима : CM (complete main)
Параметр Endianness формата : Big
Идентификатор кодека : 2000
Продолжительность : 1 ч. 34 м.
Вид битрейта : Постоянный
Битрейт : 384 Кбит/сек
Каналы : 6 каналов
Расположение каналов : Front: L C R, Side: L R, LFE
Частота : 48,0 КГц
Битовая глубина : 16 бит
Метод сжатия : С потерями
Размер потока : 259 Мбайт (18%)
Выравнивание : Разделение по промежуткам
Продолжительность промежутка : 42 мс. (1,00 видеокадр)
Время предзагрузки промежутка : 500 мс.

Скриншот c названием фильма

Скриншоты

[Профиль] [ЛС]
Кто просматривает тему:

Форум Тема Автор Размер
Pop (Рор) VA - Не потеряй мою любовь - 2015, MP3, 320 kbps Magnat 168 MB
History History: Потерянная пирамида / The Lost Pyramid (Dan Oliver, Nat Sharman) [2008 г., Документальный, научно-познавательный, история, HDTVRip 720p] skorpionN 3.17 GB
Nat Geo Wild Nat Geo Wild: Потерянные миры Индии / India's Lost Worlds [сезон 1 серии 1,3 из 3] (Jessica Connell) [2015 г., Документальный, природа, флора, фауна, HDTVRip-AVC 720p] skorpionN 2.94 GB
PBS PBS: Тайны Мертвых. Потерянные воины Карфагена / Secrets of the Dead. Carthage's lost Warriors (Майкл Грегор / Michael Gregor) [2014 г., Документальный, исследование, история, HDTVRip 720p] skorpionN 897 MB
PBS PBS: Тайны Мертвых. Потерянные корабли Древнего Рима / Secrets of the Dead. Lost Ships of Rome [сезон 10 эпизод 3 ] (Роберт Хатэл / Robert Hartel) [2010 г., Документальный, исследование, история,... skorpionN 1.57 GB
Apple, iOS, iPad, iPhone [iPad] Миллион способов потерять голову / A Million Ways to Die in the West (Сет МакФарлейн / Seth MacFarlane ) [2014, США, Комедия, вестерн, HDRip, SD (576p)] DUB + Original sergej644 1.98 GB
Программы [Разное] Город потерянных душ v1.0 [Android 2.0+, RUS] TorrentFilm 2 MB
Приключения, Квесты, Логические Внешние пределы 9: Потерянные сказки. Коллекционное издание (2016) PC достали все 664 MB
Показать сообщения:    

Текущее время: Сегодня 00:15

Часовой пояс: GMT



Вы не можете начинать темы
Вы не можете отвечать на сообщения
Вы не можете редактировать свои сообщения
Вы не можете удалять свои сообщения
Вы не можете голосовать в опросах
Вы не можете прикреплять файлы к сообщениям
Вы не можете скачивать файлы