Потерянный рай. Ностальгия по Союзу (2014) HDTV [H.264/1080i]

 
Автор Сообщение

KottoSoft ®

Стаж: 2 года

Сообщений: 119



Награды: Нет

Торрент-статистика

Создавать темы 13-Дек-2014 20:36

[Цитировать]

-Потерянный рай. Ностальгия по Союзу (2014) HDTV [H.264/1080i]-Режиссер / Телекомпания: Сергей Краус /
Страна: Россия
Год выпуска: 2014
Жанр: Документальный
Описание: Была когда-то на свете великая страна. Называлась она СССР. В ней ярко светило солнце. В ней продавали самое вкусное мороженое. Это была страна, остановившая фашизм. В СССР строились заводы и развивалось сельское хозяйство. В ней свершались космические прорывы и громкие спортивные победы. И общечеловеческие ценности были в этой стране важнее материальных.
Была когда-то на свете ужасная страна. Называлась она СССР. В ней царили человеконенавистнические законы. Люди ходили в одинаковой одежде и вечно стояли в очередях. Колбаса для них была роскошью. В СССР не существовало свободы слова. Но когда эта тюрьма вдруг исчезла, почему-то даже у тех, кто люто ее ненавидел, стало порой возникать странное чувство.
Ностальгия. Мечта о прошлом… Плюшевый медведь, с которым ты вырос. Запах маминых духов. Велосипед, который вчера купили в универмаге. Все это было с тобой в другой жизни. В стране, которой больше нет. Но сегодня еще вполне реально совершить путешествие в Советский Союз. Ведь есть вещи, которые хранят нашу историю. Есть места, где жив дух того времени. И есть люди, которые готовы рассказать о своем прошлом.
Продолжительность: 00:43:57
Субтитры: отсутствуют
Контейнер: TS
Видеокодек: MPEG-4 AVC/H.264
Битрейт видео: ~8 222 Kбит/с
Размер кадра: 1920 x 1280
Качество видео: HDTV [1080i]
Aудио: MP2 | 48KHz | 2.0ch | ~224 kbps [RUS]

MediaInfo

Общее
Идентификатор : 16 (0x10)
Полное имя : D:\Релизы\Paradise.Lost.Nostalgia.for.the.USSR.HDTV1080i.ts
Формат : MPEG-TS
Размер файла : 2,73 Гбайт
Продолжительность : 43 м.
Режим общего битрейта : Переменный
Общий поток : 8887 Кбит/сек
Видео
Идентификатор : 1901 (0x76D)
Идентификатор меню : 901 (0x385)
Формат : AVC
Формат/Информация : Advanced Video Codec
Профиль формата : [url=mailto:High@L4.0]High@L4.0[/url]
Параметр CABAC формата : Да
Параметр ReFrames формата : 3 кадра
Идентификатор кодека : 27
Продолжительность : 43 м.
Битрейт : 8222 Кбит/сек
Ширина : 1920 пикселей
Высота : 1080 пикселей
Соотношение сторон : 16:9
Частота кадров : 25,000 кадров/сек
Стандарт вещания : PAL
Цветовое пространство : YUV
Субдискретизация насыщенности : 4:2:0
Битовая глубина : 8 бит
Тип развёртки : Чересстрочная
Порядок развёртки : Нижнее поле первое
Бит/(Пиксели*Кадры) : 0.159
Размер потока : 2,52 Гбайт (93%)
Основные цвета : BT.709
Характеристики трансфера : BT.709
Коэффициенты матрицы : BT.709
Аудио
Идентификатор : 2901 (0xB55)
Идентификатор меню : 901 (0x385)
Формат : MPEG Audio
Версия формата : Version 1
Профиль формата : Layer 2
Идентификатор кодека : 4
Продолжительность : 43 м.
Вид битрейта : Постоянный
Битрейт : 224 Кбит/сек
Каналы : 2 канала
Частота : 48,0 КГц
Метод сжатия : С потерями
Задержка видео : 79 мс.
Размер потока : 70,4 Мбайт (3%)
Язык : std
Язык, дополнительно : Clean effects
Скриншоты

Дополнительные скриншоты

Пожалуйста, не уходите с раздачи - помогите докачать другим. Если понравился релиз - жмите кнопку "Спасибо"!
[Профиль] [ЛС]
Кто просматривает тему:

Форум Тема Автор Размер
Pop (Рор) VA - Не потеряй мою любовь - 2015, MP3, 320 kbps Magnat 168 MB
History History: Потерянная пирамида / The Lost Pyramid (Dan Oliver, Nat Sharman) [2008 г., Документальный, научно-познавательный, история, HDTVRip 720p] skorpionN 3.17 GB
Nat Geo Wild Nat Geo Wild: Потерянные миры Индии / India's Lost Worlds [сезон 1 серии 1,3 из 3] (Jessica Connell) [2015 г., Документальный, природа, флора, фауна, HDTVRip-AVC 720p] skorpionN 2.94 GB
PBS PBS: Тайны Мертвых. Потерянные воины Карфагена / Secrets of the Dead. Carthage's lost Warriors (Майкл Грегор / Michael Gregor) [2014 г., Документальный, исследование, история, HDTVRip 720p] skorpionN 897 MB
PBS PBS: Тайны Мертвых. Потерянные корабли Древнего Рима / Secrets of the Dead. Lost Ships of Rome [сезон 10 эпизод 3 ] (Роберт Хатэл / Robert Hartel) [2010 г., Документальный, исследование, история,... skorpionN 1.57 GB
Apple, iOS, iPad, iPhone [iPad] Миллион способов потерять голову / A Million Ways to Die in the West (Сет МакФарлейн / Seth MacFarlane ) [2014, США, Комедия, вестерн, HDRip, SD (576p)] DUB + Original sergej644 1.98 GB
Программы [Разное] Город потерянных душ v1.0 [Android 2.0+, RUS] TorrentFilm 2 MB
Приключения, Квесты, Логические Внешние пределы 9: Потерянные сказки. Коллекционное издание (2016) PC достали все 664 MB
Показать сообщения:    

Текущее время: Сегодня 07:14

Часовой пояс: GMT



Вы не можете начинать темы
Вы не можете отвечать на сообщения
Вы не можете редактировать свои сообщения
Вы не можете удалять свои сообщения
Вы не можете голосовать в опросах
Вы не можете прикреплять файлы к сообщениям
Вы не можете скачивать файлы