Потерянный отпуск / Lost Holiday: The Jim & Suzanne Shemwell Story (Грегори Гуделл / Gregory Goodell) [2007, США, драма, SATRip] MVO

 
Автор Сообщение

painkiller ®

Стаж: 2 года 10 месяцев

Сообщений: 582



Награды: Нет

Торрент-статистика

Создавать темы 14-Авг-2014 09:12

[Цитировать]

Потерянный отпуск / Lost Holiday: The Jim & Suzanne Shemwell Story
Страна: США
Жанр: драма
Год выпуска: 2007
Продолжительность: 01:24:48
Перевод: Профессиональный (многоголосый закадровый)
Cубтитры: нет
Оригинальная аудиодорожка: нет
Режиссер: Грегори Гуделл / Gregory Goodell
В ролях: Джейми Гертц, Дилан Уолш, Аарон Перл, Джулия Максвелл, Бруклинн Праулкс, Алекс Арсено, Джудит Бьюкен, Джо Норман Шоу, Шэй Киблер, Брайан Мартелл
Описание: Мать-одиночка Сюзанна получает неприятные новости: ее бывший муж Джим вернулся в Айдахо, чтобы провести с ней и двумя их дочерьми рождественские праздники. Дело еще больше осложняется, когда Джим и Сюзанна едут кататься на снегоходах и попадают в метель. Их дети стараются организовать добровольные поисковые отряды, но следов родителей обнаружить не удается. Тем временем измученным голодом и усталостью Джиму и Сюзанне приходится вместе справляться с опасными обвалами и пургой. Объединиться в борьбе со стихией - их единственный шанс на выжить и вернуться домой...
Сэмпл: http://multi-up.com/978710
Качество видео: SATRip
Формат видео: AVI
Видео: MPEG4, XviD, 720x400 (16/9), 25.000 fps, 2 110 Kbps (0.293 bit/pixel)
Аудио: AC-3, 48.0 KHz, 2 ch, 192 Kbps, CBR

MediaInfo

Общее
Полное имя : K:\Потерянный отпуск.avi
Формат : AVI
Формат/Информация : Audio Video Interleave
Размер файла : 1,37 Гбайт
Продолжительность : 1 ч. 24 м.
Общий поток : 2312 Кбит/сек
Название фильма : Потерянный отпуск / Lost Holiday: The Jim & Suzanne Shemwell Story (2007)
Программа кодирования : VirtualDubMod 1.5.10.2 (build 2540/release)
Библиотека кодирования : VirtualDubMod build 2540/release
Правообладатель : miha2154
Видео
Идентификатор : 0
Формат : MPEG-4 Visual
Профиль формата : Advanced Simple@L5
Параметр BVOP формата : 2
Параметр QPel формата : Нет
Параметр GMC формата : Без точки перехода
Параметр матрицы формата : Default (MPEG)
Идентификатор кодека : XVID
Идентификатор кодека/Подсказка : XviD
Продолжительность : 1 ч. 24 м.
Битрейт : 2110 Кбит/сек
Ширина : 720 пикселей
Высота : 400 пикселей
Соотношение сторон : 16:9
Частота кадров : 25,000 кадров/сек
Цветовое пространство : YUV
Субдискретизация насыщенности : 4:2:0
Битовая глубина : 8 бит
Тип развёртки : Прогрессивная
Метод сжатия : С потерями
Бит/(Пиксели*Кадры) : 0.293
Размер потока : 1,25 Гбайт (91%)
Библиотека кодирования : XviD 1.1.0 (UTC 2005-11-22)
Аудио
Идентификатор : 1
Формат : AC-3
Формат/Информация : Audio Coding 3
Расширение режима : CM (complete main)
Параметр Endianness формата : Big
Идентификатор кодека : 2000
Продолжительность : 1 ч. 24 м.
Вид битрейта : Постоянный
Битрейт : 192 Кбит/сек
Каналы : 2 канала
Расположение каналов : Front: L R
Частота : 48,0 КГц
Битовая глубина : 16 бит
Метод сжатия : С потерями
Размер потока : 116 Мбайт (8%)
Выравнивание : Разделение по промежуткам
Продолжительность промежутка : 40 мс. (1,00 видеокадр)
Время предзагрузки промежутка : 500 мс.
Заголовок : Профессиональный (многоголосый закадровый)

Скриншоты

[Профиль] [ЛС]

Создавать темы 06-Авг-2015 23:15 (спустя 11 месяцев 23 дня)

Топик был перенесен из форума Фильмы до 2014 года в форум Фильмы до 2012 года
sergej644
 
Кто просматривает тему:

Показать сообщения:    

Текущее время: Сегодня 08:55

Часовой пояс: GMT



Вы не можете начинать темы
Вы не можете отвечать на сообщения
Вы не можете редактировать свои сообщения
Вы не можете удалять свои сообщения
Вы не можете голосовать в опросах
Вы не можете прикреплять файлы к сообщениям
Вы не можете скачивать файлы