Потерянные в Мюнхене / Ztraceni v Mnichove (2015) BDRip | А

 
Автор Сообщение

достали все ®

Пол:

Стаж: 1 год 8 месяцев

Сообщений: 6545



Награды: 12 (Подробнее)

Mega Seeder 2 (Количество: 1) За внесенный вклад в развитие сайта (Количество: 1) Mega Seeder 3 (Количество: 1)
Торрент-статистика

Создавать темы 23-Сен-2016 13:32

[Цитировать]

Потерянные в Мюнхене / Lost in Munich / Ztraceni v Mnichove
Страна: Чехия
Производство: Lucky Man Films
Год выпуска: 2015
Жанр: драма, комедия
Продолжительность: 01:47:11
Режиссер: Петр Зеленка
Автор сценария: Петр Зеленка
В ролях: Алена Долякова, Марсиаль Ди Фондзо Бо, Яна Плодкова, Йитка Шнайдерова, Томаш Бамбушек, Вацлав Неужил, Мартин Мышичка
Описание: В сентябре 1938 Англия и Франция уступили Гитлеру часть чешских областей в Судетах, испугавшись открытого военного столкновения с Германией. В те дни 1938 года, на позорных переговорах с Гитлером, Францию представлял Премьер - министр Эдуард Деладье. Его соглашательская позиция по отношению к Германии, в то время отчасти объяснялась трусостью и нежеланием воевать с немцами, однако, спустя 70 лет после этого события, выясняется, что Деладье просто-таки презирал чехов и восхищался Гитлером. А вот выясняется это благодаря попугаю! У Деладье был замечательный серый африканский Жако, который научился говорить не просто, повторяя слова за хозяином, но и делать это голосом самого Премьер - министра. И вот вам сюжет фильма - недалёкого ума французский посланник в шутку привозит в Чехию этого попугая, который вовсю разносит чешский народ нелицеприятными словечками, да ещё голосом Деладье! Ловкий чешский журналист, у которого всё валится из рук - жена изменяет, на работе проблемы, - хватает этого попугая прямо с пресс- конференции, и устраивает грандиозное шоу с выступлением этой птицы по радио и на ТВ...

Перевод: Авторский (одноголосый) | Антон Карповский
Субтитры: нет-Качество: BDRip
Формат: AVI
Видео кодек: XviD
Аудио кодек: AC3
Видео: 720x304 (2.35:1), 23.976 fps, XviD build 67 ~1 485 kbps avg
Аудио: 48.0 kHz, AC3 Dolby Digital, 3/2 (L,C,R,l,r) + LFE ch, ~448 kbps
Дата премьеры (мир): 8 октября 2015

Релиз от: ylnian
Дополнительная информация: сборка дороги - rammzez

Media Info

General
Полное имя : Ztraceni.v.Mnichove.2015.BDRip-ylnian.avi
Формат : AVI
Формат/Информация : Audio Video Interleave
Размер файла : 1,45 Гбайт
Продолжительность : 1 ч. 47 м.
Общий поток : 1942 Кбит/сек
Программа кодирования : VirtualDubMod 1.5.10.2 (build 2540/release)
Библиотека кодирования : VirtualDubMod build 2540/release
Видео
Идентификатор : 0
Формат : MPEG-4 Visual
Профиль формата : Advanced Simple@L5
Параметр BVOP формата : 1
Параметр QPel формата : Нет
Параметр GMC формата : Без точки перехода
Параметр матрицы формата : Default (MPEG)
Идентификатор кодека : XVID
Идентификатор кодека/Подсказка : XviD
Продолжительность : 1 ч. 47 м.
Битрейт : 1485 Кбит/сек
Ширина : 720 пикселей
Высота : 304 пикселя
Соотношение сторон : 2,35:1
Частота кадров : 23,976 (24000/1001) кадра/сек
Цветовое пространство : YUV
Субдискретизация насыщенности : 4:2:0
Битовая глубина : 8 бит
Тип развёртки : Прогрессивная
Метод сжатия : С потерями
Бит/(Пиксели*Кадры) : 0.283
Размер потока : 1,11 Гбайт (76%)
Библиотека кодирования : XviD 67
Аудио
Идентификатор : 1
Формат : AC-3
Формат/Информация : Audio Coding 3
Расширение режима : CM (complete main)
Параметр Endianness формата : Big
Идентификатор кодека : 2000
Продолжительность : 1 ч. 47 м.
Вид битрейта : Постоянный
Битрейт : 448 Кбит/сек
Каналы : 6 каналов
Расположение каналов : Front: L C R, Side: L R, LFE
Частота : 48,0 КГц
Частота кадров : 31,250 кадров/сек (1536 spf)
Метод сжатия : С потерями
Размер потока : 343 Мбайт (23%)
Выравнивание : Разделение по промежуткам
Продолжительность промежутка : 42 мс. (1,00 видеокадр)
Время предзагрузки промежутка : 500 мс.
Заголовок : AVO - RUS - Karpovsky

Скриншоты

[Профиль] [ЛС]
Кто просматривает тему:

Форум Тема Автор Размер
Pop (Рор) VA - Не потеряй мою любовь - 2015, MP3, 320 kbps Magnat 168 MB
History History: Потерянная пирамида / The Lost Pyramid (Dan Oliver, Nat Sharman) [2008 г., Документальный, научно-познавательный, история, HDTVRip 720p] skorpionN 3.17 GB
Nat Geo Wild Nat Geo Wild: Потерянные миры Индии / India's Lost Worlds [сезон 1 серии 1,3 из 3] (Jessica Connell) [2015 г., Документальный, природа, флора, фауна, HDTVRip-AVC 720p] skorpionN 2.94 GB
PBS PBS: Тайны Мертвых. Потерянные воины Карфагена / Secrets of the Dead. Carthage's lost Warriors (Майкл Грегор / Michael Gregor) [2014 г., Документальный, исследование, история, HDTVRip 720p] skorpionN 897 MB
PBS PBS: Тайны Мертвых. Потерянные корабли Древнего Рима / Secrets of the Dead. Lost Ships of Rome [сезон 10 эпизод 3 ] (Роберт Хатэл / Robert Hartel) [2010 г., Документальный, исследование, история,... skorpionN 1.57 GB
Apple, iOS, iPad, iPhone [iPad] Миллион способов потерять голову / A Million Ways to Die in the West (Сет МакФарлейн / Seth MacFarlane ) [2014, США, Комедия, вестерн, HDRip, SD (576p)] DUB + Original sergej644 1.98 GB
Программы [Разное] Город потерянных душ v1.0 [Android 2.0+, RUS] TorrentFilm 2 MB
Приключения, Квесты, Логические Внешние пределы 9: Потерянные сказки. Коллекционное издание (2016) PC достали все 664 MB
Показать сообщения:    

Текущее время: Сегодня 12:33

Часовой пояс: GMT



Вы не можете начинать темы
Вы не можете отвечать на сообщения
Вы не можете редактировать свои сообщения
Вы не можете удалять свои сообщения
Вы не можете голосовать в опросах
Вы не можете прикреплять файлы к сообщениям
Вы не можете скачивать файлы