Потерянное время / Utolso idok (Арон Матиасси / Aron Matyassy) [2009, Венгрия, драма, DVB-AVC] DVO (Kino Polska)

 
Автор Сообщение

TorrentFilm ®

Пол:

Стаж: 2 года 6 месяцев

Сообщений: 7773



Награды: Нет

Торрент-статистика

Создавать темы 22-Июл-2015 00:07

[Цитировать]

Потерянное время
Utolsó idök- Страна: Венгрия
Жанр: драма
Год выпуска: 2009
Продолжительность: 01:29:10Перевод: Профессиональный (двухголосый закадровый) по заказу Kino Polska на производственно-технической базе Студии "Акцент"
Cубтитры: нет
Режиссер: Арон Матиасси / Áron Mátyássy
В ролях: Йожеф Кадаш / József Kádas (Iván), Терез Вашш / Teréz Vass (Eszter), Эстер Фолдеш / Eszter Földes (Ilus), Марианн Салаи / Mariann Szalay (Léna), Аттила Ласло / Attila Géza László (Dénes)
Описание: Иван работает механиком и живёт вместе со своей умалишенной сестрой Эстер в маленьком городке на востоке Венгрии. Неторопливая жизнь брата и сестры нарушается трагическим событием, Эстер насилуют. Когда полиция оказывается бессильна, Иван решает собственноручно вершить правосудие…
Доп. информация: Filmbox Arthouse IPTV
Награды: Гран-при Hungarian Film Week 2009; номинация на "Золотой зенит" Montréal World Film Festival 2009; номинация на Гран-при за лучший фильм Ghent International Film Festival 2009; номинация на "Золотой Хьюго" в секции "Новые режиссеры" Chicago International Film Festival 2009.

Качество видео: DVB-AVC
Формат видео: MKV
Видео: AVC (H.264), 720x576@1024x576 (16:9), 25 fps, ~1118 kbps avg, 0.108 bit/pixel
Аудио: MPEG Audio 2, 2 ch, 48 kHz, ~128.00 kbps avg

MediaInfo

ОбщееУникальный идентификатор : 205490161459263679854388845601896737024 (0x9A97F72C86364A3B9C6D8EC0467F2900)Полное имя : F:\My Torrents 3\[apreder]Utolso_idok(2009)DVB.mkvФормат : MatroskaВерсия формата : Version 2Размер файла : 811 МбайтПродолжительность : 1 ч. 29 м.Общий поток : 1271 Кбит/секДата кодирования : UTC 2015-07-12 16:33:54Программа кодирования : mkvmerge v8.1.0 ('Psychedelic Postcard') 64bitБиблиотека кодирования : libebml v1.3.1 + libmatroska v1.4.2Attachements : cover.jpg / cover_small.jpg
ВидеоИдентификатор : 2Формат : AVCФормат/Информация : Advanced Video CodecПрофиль формата : Main@L3Параметр CABAC формата : ДаПараметр ReFrames формата : 3 кадраИдентификатор кодека : V_MPEG4/ISO/AVCПродолжительность : 1 ч. 29 м.Битрейт : 1118 Кбит/секШирина : 720 пикселейВысота : 576 пикселейСоотношение сторон : 16:9Соотношение сторон в оригинале : 16:9Режим частоты кадров : ПостоянныйЧастота кадров : 25,000 кадров/секСтандарт вещания : ComponentЦветовое пространство : YUVСубдискретизация насыщенности : 4:2:0Битовая глубина : 8 битТип развёртки : ЧересстрочнаяПорядок развёртки : Верхнее поле первоеБит/(Пиксели*Кадры) : 0.108Размер потока : 713 Мбайт (88%)Default : ДаForced : Нетcolour_range : LimitedОсновные цвета : BT.601 PALХарактеристики трансфера : BT.470 System B, BT.470 System GКоэффициенты матрицы : BT.601
АудиоИдентификатор : 1Формат : MPEG AudioВерсия формата : Version 1Профиль формата : Layer 2Идентификатор кодека : A_MPEG/L2Идентификатор кодека/Подсказка : MP2Продолжительность : 1 ч. 29 м.Вид битрейта : ПостоянныйБитрейт : 128 Кбит/секКаналы : 2 каналаЧастота : 48,0 КГцМетод сжатия : С потерямиЗадержка видео : -20 мс.Размер потока : 81,6 Мбайт (10%)Язык : RussianDefault : ДаForced : Нет

Скриншот c названием фильма

Скриншоты


Резервные скриншоты


-[2'463]
[Профиль] [ЛС]

Создавать темы 06-Авг-2015 22:23 (спустя 15 дней)

Топик был перенесен из форума Фильмы до 2014 года в форум Фильмы до 2012 года
sergej644
 

Создавать темы 12-Июн-2016 08:49 (спустя 10 месяцев 21 день)

Топик был перенесен из форума Фильмы 2011 года в форум Фильмы 2009 года
Russian Mafia
 
Кто просматривает тему:

Показать сообщения:    

Текущее время: Сегодня 12:34

Часовой пояс: GMT



Вы не можете начинать темы
Вы не можете отвечать на сообщения
Вы не можете редактировать свои сообщения
Вы не можете удалять свои сообщения
Вы не можете голосовать в опросах
Вы не можете прикреплять файлы к сообщениям
Вы не можете скачивать файлы