Потерявшиеся на солнце / Заблудшие души / Lost in the sun (Трей Нельсон / Trey Nelson) [2015, США, криминал, мелодрама, DVDRip] VO

 
Автор Сообщение

TorrentFilm ®

Пол:

Стаж: 2 года

Сообщений: 7741



Награды: Нет

Торрент-статистика

Создавать темы 10-Янв-2016 00:09

[Цитировать]

Потерявшиеся на солнце / Заблудшие души / Lost in the sun
Страна: США
Жанр: криминал, мелодрама
Год выпуска: 2015
Продолжительность: 01:35:41
Перевод: Одноголосый закадровый (PashaUp)
Cубтитры: нет
Режиссер: Трей Нельсон / Trey Nelson
В ролях: Джош Дюамель, Джош Уиггинс, Линн Коллинс, Эмма Фурманн, Тиган Бойд
Описание: По бескрайним просторам глухой американской провинции путешествуют двое: потертого вида мужчина и мальчик-подросток. Они передвигаются на угнанной машине и грабят все магазины, что попадаются им по пути. Что обьединяет этих двоих? Откуда и куда они держат путь?
Доп. информация: американское независимое кино. Один из тех фильмов, что радуют взоры критиков на Сандэнсе и ему подобных киносмотрах, напоминая, что можно снимать кино, даже если ты не встроился в систему Голливуда.
Перевод: М.Васильев
Озвучка: П.Морозов (релиз подготовлен ВК группой "Озвучка фильмов от PashaUP")
IMDB
КИНОПОИСК
Сэмпл
Качество видео: DVDRip
Формат видео: AVI
Видео: 882 Kbps, 640x272 (2.35:1) 23 976 fps, XviD
Аудио: 128 Kbps, 48.0 KHz, 2 ch, MP 3

MediaInfo

General
Complete name : C:\Users\Владелец\Desktop\Lost2015.avi
Format : AVI
Format/Info : Audio Video Interleave
File size : 698 MiB
Duration : 1h 35mn
Overall bit rate : 1 020 Kbps
Video
ID : 0
Format : MPEG-4 Visual
Format profile : Advanced Simple@L5
Format settings, BVOP : 2
Format settings, QPel : No
Format settings, GMC : No warppoints
Format settings, Matrix : Default (H.263)
Codec ID : XVID
Codec ID/Hint : XviD
Duration : 1h 35mn
Bit rate : 882 Kbps
Width : 640 pixels
Height : 272 pixels
Display aspect ratio : 2.35:1
Frame rate : 23.976 fps
Color space : YUV
Chroma subsampling : 4:2:0
Bit depth : 8 bits
Scan type : Progressive
Compression mode : Lossy
Bits/(Pixel*Frame) : 0.211
Stream size : 604 MiB (87%)
Writing library : XviD 67
Audio
ID : 1
Format : MPEG Audio
Format version : Version 1
Format profile : Layer 3
Mode : Joint stereo
Mode extension : MS Stereo
Codec ID : 55
Codec ID/Hint : MP3
Duration : 1h 35mn
Bit rate mode : Constant
Bit rate : 128 Kbps
Channel(s) : 2 channels
Sampling rate : 48.0 KHz
Compression mode : Lossy
Stream size : 87.6 MiB (13%)
Alignment : Aligned on interleaves
Interleave, duration : 42 ms (1.00 video frame)
Interleave, preload duration : 504 ms

Скриншот c названием фильма

Скриншоты





[Профиль] [ЛС]
Кто просматривает тему:

Форум Тема Автор Размер
Pop (Рор) VA - Не потеряй мою любовь - 2015, MP3, 320 kbps Magnat 168 MB
History History: Потерянная пирамида / The Lost Pyramid (Dan Oliver, Nat Sharman) [2008 г., Документальный, научно-познавательный, история, HDTVRip 720p] skorpionN 3.17 GB
Nat Geo Wild Nat Geo Wild: Потерянные миры Индии / India's Lost Worlds [сезон 1 серии 1,3 из 3] (Jessica Connell) [2015 г., Документальный, природа, флора, фауна, HDTVRip-AVC 720p] skorpionN 2.94 GB
PBS PBS: Тайны Мертвых. Потерянные воины Карфагена / Secrets of the Dead. Carthage's lost Warriors (Майкл Грегор / Michael Gregor) [2014 г., Документальный, исследование, история, HDTVRip 720p] skorpionN 897 MB
PBS PBS: Тайны Мертвых. Потерянные корабли Древнего Рима / Secrets of the Dead. Lost Ships of Rome [сезон 10 эпизод 3 ] (Роберт Хатэл / Robert Hartel) [2010 г., Документальный, исследование, история,... skorpionN 1.57 GB
Apple, iOS, iPad, iPhone [iPad] Миллион способов потерять голову / A Million Ways to Die in the West (Сет МакФарлейн / Seth MacFarlane ) [2014, США, Комедия, вестерн, HDRip, SD (576p)] DUB + Original sergej644 1.98 GB
Программы [Разное] Город потерянных душ v1.0 [Android 2.0+, RUS] TorrentFilm 2 MB
Приключения, Квесты, Логические Внешние пределы 9: Потерянные сказки. Коллекционное издание (2016) PC достали все 664 MB
Показать сообщения:    

Текущее время: Сегодня 04:14

Часовой пояс: GMT



Вы не можете начинать темы
Вы не можете отвечать на сообщения
Вы не можете редактировать свои сообщения
Вы не можете удалять свои сообщения
Вы не можете голосовать в опросах
Вы не можете прикреплять файлы к сообщениям
Вы не можете скачивать файлы