(Pop)Потап и Настя Каменских - Всё пучком (2013) [FLAC|Lossless]

 
Автор Сообщение

sergej644 ®

Пол:

Стаж: 4 года 11 месяцев

Сообщений: 6044

Откуда: Soviet Union



Награды: Нет

Торрент-статистика

Создавать темы 19-Ноя-2014 20:22

[Цитировать]

-Потап и Настя Каменских - Всё пучком (2013)- Год: 2013
Жанр: Pop
Продолжительность: 00:56:43
Издатель (лейбл): ООО "Первое музыкальное издание"
Номер по каталогу: UMGCD13-330
Кодек: FLAC
Битрейт: Lossless
Тип рипа: image+.cue
Источник (релизер): Спасибо Signal
Наличие сканов: Да, полные
Описание: Издание CD+DVD. Записи 2011-2013. Ограничение по возрасту: 14+
Треклист:
01. - Интро (1:52)
02. - Всё пучком (3:19)
03. - Супермодель (2:00)
04. - Любовь со скидкой (3:40)
05. - Круг (0:38)
06. - Не могу я без тебя (3:16)
07. - Маячок (3:29)
08. - Урок (0:58)
09. - Чумачечная весна (3:14)
10. - Мы отменяем К.С. (3:16)
11. - Прилелето (3:17)
12. - Стишок (0:37)

Продолжение треклиста:

13. - Вместе (3:11)
14. - Рыбы-пилы (0:57)
15. - Гимнастика, ч.1 (0:04)
16. - РуРуРу (2:59)
17. - Гимнастика, ч.2 (0:35)
18. - Улетело (3:29)
19. - Если вдруг (3:23)
20. - Не хватило водуха (3:27)
21. - Принцессы (2:54)
22. - Вместе (Uncensored) (3:05)
23. - Awesome summer (3:16)

Содержание индексной карты (.CUE)::

REM GENRE Pop
REM DATE 2013
REM DISCID 2A0D5717
REM COMMENT "ExactAudioCopy v1.0b3"
PERFORMER "Потап и Настя"
TITLE "Альбом №3"
FILE "Потап и Настя - Альбом №3.flac" WAVE
  TRACK 01 AUDIO
    TITLE "Интро"
    PERFORMER "Потап и Настя"
    INDEX 01 00:00:00
  TRACK 02 AUDIO
    TITLE "Всё пучком"
    PERFORMER "Потап и Настя"
    INDEX 01 01:52:06
  TRACK 03 AUDIO
    TITLE "Супермодель"
    PERFORMER "Потап и Настя"
    INDEX 01 05:10:57
  TRACK 04 AUDIO
    TITLE "Любовь со скидкой"
    PERFORMER "Потап и Настя"
    INDEX 01 07:10:38
  TRACK 05 AUDIO
    TITLE "Круг"
    PERFORMER "Потап и Настя"
    INDEX 01 10:50:33
  TRACK 06 AUDIO
    TITLE "Не могу я без тебя"
    PERFORMER "Потап и Настя"
    INDEX 01 11:28:31
  TRACK 07 AUDIO
    TITLE "Маячок"
    PERFORMER "Потап и Настя"
    INDEX 01 14:44:53
  TRACK 08 AUDIO
    TITLE "Урок"
    PERFORMER "Потап и Настя"
    INDEX 01 18:14:00
  TRACK 09 AUDIO
    TITLE "Чумачечная весна"
    PERFORMER "Потап и Настя"
    INDEX 01 19:11:74
  TRACK 10 AUDIO
    TITLE "Мы отменяем К.С."
    PERFORMER "Потап и Настя"
    INDEX 01 22:25:55
  TRACK 11 AUDIO
    TITLE "Прилелето"
    PERFORMER "Потап и Настя"
    INDEX 01 25:42:11
  TRACK 12 AUDIO
    TITLE "Стишок"
    PERFORMER "Потап и Настя"
    INDEX 01 28:59:06
  TRACK 13 AUDIO
    TITLE "Вместе"
    PERFORMER "Потап и Настя"
    INDEX 01 29:35:61
  TRACK 14 AUDIO
    TITLE "Рыбы-пилы"
    PERFORMER "Потап и Настя"
    INDEX 01 32:47:11
  TRACK 15 AUDIO
    TITLE "Гимнастика, ч.1"
    PERFORMER "Потап и Настя"
    INDEX 01 33:44:21
  TRACK 16 AUDIO
    TITLE "РуРуРу"
    PERFORMER "Потап и Настя"
    INDEX 01 33:48:49
  TRACK 17 AUDIO
    TITLE "Гимнастика, ч.2"
    PERFORMER "Потап и Настя"
    INDEX 01 36:47:13
  TRACK 18 AUDIO
    TITLE "Улетело"
    PERFORMER "Потап и Настя"
    INDEX 01 37:21:74
  TRACK 19 AUDIO
    TITLE "Если вдруг"
    PERFORMER "Потап и Настя"
    INDEX 01 40:51:07
  TRACK 20 AUDIO
    TITLE "Не хватило водуха"
    PERFORMER "Потап и Настя"
    INDEX 01 44:13:68
  TRACK 21 AUDIO
    TITLE "Принцессы"
    PERFORMER "Потап и Настя"
    INDEX 01 47:40:46
  TRACK 22 AUDIO
    TITLE "Вместе (Uncensored)"
    PERFORMER "Потап и Настя"
    INDEX 01 50:34:30
  TRACK 23 AUDIO
    TITLE "Awesome summer"
    PERFORMER "Потап и Настя"
    INDEX 01 53:39:33

Отчёт ЕАС:

Exact Audio Copy V1.0 beta 3 from 29. August 2011
Отчёт EAC об извлечении, выполненном 17. марта 2014, 22:48
Потап и Настя / Альбом №3
Дисковод: PIONEER BD-ROM BDCTD02RS   Adapter: 0  ID: 1
Режим чтения                 : Достоверность
Использование точного потока : Да
Отключение кэша аудио        : Да
Использование указателей C2  : Нет
Коррекция смещения при чтении                     : 667
Способность читать области Lead-in и Lead-out     : Нет
Заполнение пропущенных сэмплов тишиной            : Да
Удаление блоков с тишиной в начале и конце        : Нет
При вычислениях CRC использовались нулевые сэмплы : Да
Интерфейс                                         : Встроенный Win32-интерфейс для Win NT/2000
Выходной формат : Внутренние WAV-операции
Формат сэмплов  : 44.100 Гц; 16 бит; стерео
TOC извлечённого CD
     Трек |   Старт  | Длительность | Начальный сектор | Конечный сектор
    ---------------------------------------------------------------------
       1  |  0:00.00 |    1:52.06   |           0      |       8405
       2  |  1:52.06 |    3:18.51   |        8406      |      23306
       3  |  5:10.57 |    1:59.56   |       23307      |      32287
       4  |  7:10.38 |    3:39.70   |       32288      |      48782
       5  | 10:50.33 |    0:37.73   |       48783      |      51630
       6  | 11:28.31 |    3:16.22   |       51631      |      66352
       7  | 14:44.53 |    3:29.22   |       66353      |      82049
       8  | 18:14.00 |    0:57.74   |       82050      |      86398
       9  | 19:11.74 |    3:13.56   |       86399      |     100929
      10  | 22:25.55 |    3:16.31   |      100930      |     115660
      11  | 25:42.11 |    3:16.70   |      115661      |     130430
      12  | 28:59.06 |    0:36.55   |      130431      |     133185
      13  | 29:35.61 |    3:11.25   |      133186      |     147535
      14  | 32:47.11 |    0:57.10   |      147536      |     151820
      15  | 33:44.21 |    0:04.28   |      151821      |     152148
      16  | 33:48.49 |    2:58.39   |      152149      |     165537
      17  | 36:47.13 |    0:34.61   |      165538      |     168148
      18  | 37:21.74 |    3:29.08   |      168149      |     183831
      19  | 40:51.07 |    3:22.61   |      183832      |     199042
      20  | 44:13.68 |    3:26.53   |      199043      |     214545
      21  | 47:40.46 |    2:53.59   |      214546      |     227579
      22  | 50:34.30 |    3:05.03   |      227580      |     241457
      23  | 53:39.33 |    3:16.25   |      241458      |     256182
Характеристики диапазона извлечения и сообщения об ошибках
Выбранный диапазон
     Имя файла C:\Music\Потап и Настя\Потап и Настя - Альбом номер 3\Потап и Настя - Альбом №3.wav
     Пиковый уровень 97.1 %
     Скорость извлечения 4.7 X
     Качество диапазона 100.0 %
     CRC теста 7AEC7FFC
     CRC копии 7AEC7FFC
     Копирование... OK
Ошибок не произошло
AccurateRip: сводка
Трек  1  : извлечено точно (доверие 1)  [1D07A9C5]  (AR v2)
Трек  2  : извлечено точно (доверие 1)  [E68FBE6B]  (AR v2)
Трек  3  : извлечено точно (доверие 1)  [DADC9659]  (AR v2)
Трек  4  : извлечено точно (доверие 1)  [36C65A5A]  (AR v2)
Трек  5  : извлечено точно (доверие 1)  [AA48A914]  (AR v2)
Трек  6  : извлечено точно (доверие 1)  [57FF9431]  (AR v2)
Трек  7  : извлечено точно (доверие 1)  [FE4EBEFD]  (AR v2)
Трек  8  : извлечено точно (доверие 1)  [37797881]  (AR v2)
Трек  9  : извлечено точно (доверие 1)  [9885A0E7]  (AR v2)
Трек 10  : извлечено точно (доверие 1)  [61AC8A07]  (AR v2)
Трек 11  : извлечено точно (доверие 1)  [5977489D]  (AR v2)
Трек 12  : извлечено точно (доверие 1)  [82D0C464]  (AR v2)
Трек 13  : извлечено точно (доверие 1)  [940F8B00]  (AR v2)
Трек 14  : извлечено точно (доверие 1)  [1CB8DC52]  (AR v2)
Трек 15  отсутствует в базе данных
Трек 16  : извлечено точно (доверие 1)  [B5CA4498]  (AR v2)
Трек 17  : извлечено точно (доверие 1)  [6CF5422A]  (AR v2)
Трек 18  : извлечено точно (доверие 1)  [A536522E]  (AR v2)
Трек 19  : извлечено точно (доверие 1)  [3E123D19]  (AR v2)
Трек 20  : извлечено точно (доверие 1)  [BF077EAA]  (AR v2)
Трек 21  : извлечено точно (доверие 1)  [BA4CD24D]  (AR v2)
Трек 22  : извлечено точно (доверие 1)  [244E65F6]  (AR v2)
Трек 23  : извлечено точно (доверие 1)  [F38B7C0C]  (AR v2)
22 трек(и) скопированы точно
1 трек(и) не содержатся в базе AccurateRip
Некоторые треки не прошли проверку на точность
Конец отчёта
---- CUETools DB Plugin V2.1.3
[CTDB TOCID: 4oRGi_dqirIXGj.qEHeC.nMOX6Y-] found, Submit result: 4oRGi_dqirIXGj.qEHeC.nMOX6Y- has been confirmed
[e5e0dc38] (1/1) Accurately ripped

Отчёт auCDtect Task manager:

-----------------------
DON'T MODIFY THIS FILE
-----------------------
PERFORMER: auCDtect Task Manager, ver. 1.6.0 RC1 build 1.6.0.1
Copyright (c) 2008-2010 y-soft. All rights reserved
http://y-soft.org
ANALYZER: auCDtect: CD records authenticity detector, version 0.8.2
Copyright (c) 2004 Oleg Berngardt. All rights reserved.
Copyright (c) 2004 Alexander Djourik. All rights reserved.
FILE: Потап и Настя - Альбом №3.flac
  Size: 413189195 Hash: C73D14590A2847AAB295B0197C8B051C Accuracy: -m0
  Conclusion: CDDA 100%
  Signature: 7E588DCF93C12017846C7AABA173D1AFDA941384
--
[Профиль] [ЛС]

Создавать темы 13-Авг-2015 10:05 (спустя 8 месяцев 23 дня)

Топик был перенесен из форума Отечественная в форум Pop
sergej644
 
Кто просматривает тему:

Показать сообщения:    

Текущее время: Сегодня 10:07

Часовой пояс: GMT



Вы не можете начинать темы
Вы не можете отвечать на сообщения
Вы не можете редактировать свои сообщения
Вы не можете удалять свои сообщения
Вы не можете голосовать в опросах
Вы не можете прикреплять файлы к сообщениям
Вы не можете скачивать файлы