Потайные места / Hidden Places (Елена Ланская) [2006, США, драма, HDTVRip] MVO

 
Автор Сообщение

TorrentFilm ®

Пол:

Стаж: 2 года

Сообщений: 7741



Награды: Нет

Торрент-статистика

Создавать темы 29-Дек-2014 00:15

[Цитировать]

Потайные места / Hidden Places
Страна: США
Жанр: драма
Год выпуска: 2006
Продолжительность: 01:22:31
Перевод: Профессиональный (многоголосый закадровый)
Cубтитры: нет
Режиссер: Елена Ланская
В ролях: Джейсон Гедрик (Jason Gedrick), Логан Аренс (Logan Arens), Том Босли (Tom Bosley), Бэрри Корбин (Barry Corbin), Джин Дэвис (Gene Davis), Джон Дил (John Diehl), Джейн Флайсс (Jane Fleiss), Ширли Джонс (Shirley Jones), Джеймс Кин (James Keane), Donn Markel, Sydney Penny, Molly Weiner, Carlie Westerman, Time Winters
Описание: По одноименному роману Линн Остин.
Годами Апельсиновая Роща поддерживала благополучие двух калифорнийских фермеров, Фрэнка и Элизу. Когда Фрэнк умирает от сердечного приступа, Элиза остаётся матерью-одиночкой с двумя детьми. Её вера подвергается испытанию и когда появляется Гэбриэл (не обычный бродяга: он умён, набожен, вежлив и умеет красиво говорить), который ищет здесь работу, Элиза сближается с ним и задается вопросом: «что ищет он в краю далеком, что кинул он в краю родном»? Время выкупа по закладной неумолимо истекает и Гэбриэл становится очень нужным ее семье человеком. Когда же Элиза случайно натыкается на спрятанный дневник Габриэла … .
Сэмпл: https://yadi.sk/i/KBKR3MUddQtaQ
Доп. информация: За предоставленный рип благодарим Ledy_X
"Спасибы" просьба ПИСАТЬ в теме, тем самым вы продлеваете жизнь раздаче.
Релиз
Качество видео: HDTVRip [Исходник 1080i]
Формат видео: AVI
Видео: 720x400 (1.80:1), 25 fps, XviD build 50 ~2169 kbps avg, 0.30 bit/pixel
Аудио: 48 kHz, AC3 Dolby Digital, 2/0 (L,R) ch, ~192 kbps

MediaInfo

Потайные места - Hidden Places [Rip by Ledy_X].avi
Format : AVI
Format/Info : Audio Video Interleave
File size : 1.37 GiB
Duration : 1h 22mn
Overall bit rate : 2 372 Kbps
Movie name : Потайные места - Hidden Places [Rip by Ledy_X]
Director : Rip by Ledy_X
Writing application : VirtualDubMod 1.5.10.3 | www.virtualdub-fr.org || (build 2550/release)
Copyright : Edich2
Comment : RuTracker.org
Video
ID : 0
Format : MPEG-4 Visual
Format profile : Advanced Simple@L5
Format settings, BVOP : 1
Format settings, QPel : No
Format settings, GMC : No warppoints
Format settings, Matrix : Default (MPEG)
Codec ID : XVID
Codec ID/Hint : XviD
Duration : 1h 22mn
Bit rate : 2 170 Kbps
Width : 720 pixels
Height : 400 pixels
Display aspect ratio : 16:9
Frame rate : 25.000 fps
Color space : YUV
Chroma subsampling : 4:2:0
Bit depth : 8 bits
Scan type : Progressive
Compression mode : Lossy
Bits/(Pixel*Frame) : 0.301
Stream size : 1.25 GiB (91%)
Writing library : XviD 1.2.1 (UTC 2008-12-04)
Audio
ID : 1
Format : AC-3
Format/Info : Audio Coding 3
Mode extension : CM (complete main)
Format settings, Endianness : Big
Codec ID : 2000
Duration : 1h 22mn
Bit rate mode : Constant
Bit rate : 192 Kbps
Channel(s) : 2 channels
Channel positions : Front: L R
Sampling rate : 48.0 KHz
Bit depth : 16 bits
Compression mode : Lossy
Stream size : 113 MiB (8%)
Alignment : Split accross interleaves
Interleave, duration : 40 ms (1.00 video frame)
Interleave, preload duration : 500 ms

Скриншоты


[Профиль] [ЛС]

Создавать темы 06-Авг-2015 22:53 (спустя 7 месяцев 8 дней)

Топик был перенесен из форума Фильмы до 2014 года в форум Фильмы до 2012 года
sergej644
 
Кто просматривает тему:

Показать сообщения:    

Текущее время: Сегодня 00:36

Часовой пояс: GMT



Вы не можете начинать темы
Вы не можете отвечать на сообщения
Вы не можете редактировать свои сообщения
Вы не можете удалять свои сообщения
Вы не можете голосовать в опросах
Вы не можете прикреплять файлы к сообщениям
Вы не можете скачивать файлы