Посторонний / The Intruders (2015) WEB-DL [720p]

 
Автор Сообщение

достали все ®

Пол:

Стаж: 1 год 8 месяцев

Сообщений: 6545



Награды: 12 (Подробнее)

Top Releaser 2 (Количество: 1) Mega Seeder 3 (Количество: 1) За внесенный вклад в развитие сайта (Количество: 1)
Торрент-статистика

Создавать темы 04-Май-2015 06:15

[Цитировать]

-Посторонний / The Intruders (2015) WEB-DL [H.264/720p-LQ]- Производство: Canada / Darius Films
Жанр: триллер
Режиссер: Адам Мэсси
Продюсер: Джефф Сэкман, Николас Табаррок, Крис Дэнтон
Актеры: Миранда Косгров, Донал Лог, Том Сайзмор, Дженесса Грант, Остин Роберт Батлер, Kelly Boegel, Клер Каларко, Майкл Лакетт, Jazmin Paradis, Маккензи Болл
Описание:
После трагической потери матери, девочка-подросток, пытается раскрыть темные тайны ее нового дома, несмотря на то, что отец не верит ей…

Рейтинг MPAA: PG-13 - Детям до 13 лет просмотр не желателен
Продолжительность: 01:32:08
Качество: WEB-DL (720p)
Перевод: профессиональный (многоголосый закадровый) (iTunes Russia)
Субтитры: отсутствуют
Видеокодек: MPEG-4 AVC/H.264
Битрейт видео: ~ 3 561 kbps
Размер кадра: 1280 x 540 (2,40:1)
Аудио # 1: АС3, 6 ch, 384 kbps, 48 000 Hz - многоголосый закадровый - iTunes Russia
Аудио # 2: АС3, 6 ch, 384 kbps, 48 000 Hz - оригинальный

MediaInfo

Общее
Уникальный идентификатор                 : 240334851538915450394045421881211291607 (0xB4CECF08A8890C57832EC25B8EC907D7)
Полное имя                               : F:\The.Intruders.2015.P.WEB-DL.720p.mkv
Формат                                   : Matroska
Версия формата                           : Version 4 / Version 2
Размер файла                             : 2,75 Гбайт
Продолжительность                        : 1 ч. 32 м.
Общий поток                              : 4277 Кбит/сек
Название фильма                          : The.Intruders.2015.P.WEB-DL.720p
Дата кодирования                         : UTC 2015-05-02 09:49:03
Программа кодирования                    : mkvmerge v7.8.0 ('River Man') 32bit built on Mar 27 2015 16:18:02
Библиотека кодирования                   : libebml v1.3.1 + libmatroska v1.4.2
_STATISTICS_WRITING_APP                  : mkvmerge v7.8.0 ('River Man') 32bit built on Mar 27 2015 16:18:02
_STATISTICS_WRITING_DATE_UTC             : 2015-05-02 09:49:03
_STATISTICS_TAGS                         : BPS DURATION NUMBER_OF_FRAMES NUMBER_OF_BYTES
DURATION                                 : 01:32:07.584000000
NUMBER_OF_FRAMES                         : 172737
NUMBER_OF_BYTES                          : 265324032
Видео
Идентификатор                            : 1
Формат                                   : AVC
Формат/Информация                        : Advanced Video Codec
Профиль формата                          : [url=mailto:High@L4.1]High@L4.1[/url]
Параметр CABAC формата                   : Да
Параметр ReFrames формата                : 4 кадра
Идентификатор кодека                     : V_MPEG4/ISO/AVC
Продолжительность                        : 1 ч. 32 м.
Битрейт                                  : 3561 Кбит/сек
Ширина                                   : 1280 пикселей
Высота                                   : 540 пикселей
Соотношение сторон                       : 2,40:1
Режим частоты кадров                     : Постоянный
Частота кадров                           : 23,976 кадра/сек
Цветовое пространство                    : YUV
Субдискретизация насыщенности            : 4:2:0
Битовая глубина                          : 8 бит
Тип развёртки                            : Прогрессивная
Бит/(Пиксели*Кадры)                      : 0.215
Размер потока                            : 2,20 Гбайт (80%)
Заголовок                                : The.Intruders.2015.P.WEB-DL.720p
Библиотека кодирования                   : x264 core 130 r2273 b3065e6
Настройки программы                      : cabac=1 / ref=1 / deblock=1:0:0 / analyse=0x3:0x113 / me=hex / subme=2 / psy=1 / psy_rd=1.00:0.00 / mixed_ref=0 / me_range=16 / chroma_me=1 / trellis=0 / 8x8dct=1 / cqm=0 / deadzone=21,11 / fast_pskip=1 / chroma_qp_offset=0 / threads=6 / lookahead_threads=2 / sliced_threads=0 / nr=0 / decimate=1 / interlaced=0 / bluray_compat=0 / constrained_intra=0 / bframes=3 / b_pyramid=2 / b_adapt=1 / b_bias=0 / direct=1 / weightb=1 / open_gop=0 / weightp=1 / keyint=240 / keyint_min=24 / scenecut=40 / intra_refresh=0 / rc_lookahead=10 / rc=abr / mbtree=1 / bitrate=3561 / ratetol=1.0 / qcomp=0.60 / qpmin=0 / qpmax=69 / qpstep=4 / vbv_maxrate=62500 / vbv_bufsize=78125 / nal_hrd=none / ip_ratio=1.40 / aq=1:1.00
Язык                                     : English
Default                                  : Да
Forced                                   : Нет
Цветовой диапазон                        : Limited
Основные цвета                           : BT.709
Характеристики трансфера                 : BT.709
Коэффициенты матрицы                     : BT.709
Аудио #1
Идентификатор                            : 2
Формат                                   : AC-3
Формат/Информация                        : Audio Coding 3
Расширение режима                        : CM (complete main)
Параметр Endianness формата              : Big
Идентификатор кодека                     : A_AC3
Продолжительность                        : 1 ч. 32 м.
Вид битрейта                             : Постоянный
Битрейт                                  : 384 Кбит/сек
Каналы                                   : 6 каналов
Расположение каналов                     : Front: L C R, Side: L R, LFE
Частота                                  : 48,0 КГц
Битовая глубина                          : 16 бит
Метод сжатия                             : С потерями
Размер потока                            : 253 Мбайт (9%)
Заголовок                                : Многоголосый закадровый - iTunes Russia
Язык                                     : Russian
Default                                  : Да
Forced                                   : Нет
Аудио #2
Идентификатор                            : 3
Формат                                   : AC-3
Формат/Информация                        : Audio Coding 3
Расширение режима                        : CM (complete main)
Параметр Endianness формата              : Big
Идентификатор кодека                     : A_AC3
Продолжительность                        : 1 ч. 32 м.
Вид битрейта                             : Постоянный
Битрейт                                  : 384 Кбит/сек
Каналы                                   : 6 каналов
Расположение каналов                     : Front: L C R, Side: L R, LFE
Частота                                  : 48,0 КГц
Битовая глубина                          : 16 бит
Метод сжатия                             : С потерями
Размер потока                            : 253 Мбайт (9%)
Заголовок                                : Оригинальный
Язык                                     : English
Default                                  : Нет
Forced                                   : Нет
Меню
00:00:00.000                             : en:Chapter 1
00:06:14.040                             : en:Chapter 2
00:12:59.028                             : en:Chapter 3
00:19:27.000                             : en:Chapter 4
00:25:36.037                             : en:Chapter 5
00:28:30.043                             : en:Chapter 6
00:34:25.065                             : en:Chapter 7
00:40:57.040                             : en:Chapter 8
00:48:33.080                             : en:Chapter 9
00:54:41.032                             : en:Chapter 10
01:01:50.043                             : en:Chapter 11
01:07:48.068                             : en:Chapter 12
01:10:15.048                             : en:Chapter 13
01:14:15.038                             : en:Chapter 14
01:20:50.017                             : en:Chapter 15
-Скриншоты:
-
[Профиль] [ЛС]
Кто просматривает тему:

Форум Тема Автор Размер
Nat Geo Wild Nat Geo Wild: Землеройка-убийца / Killer Shrew (Дженни Апостол) [2014 г., Документальный, природа, HDTVRip 720] skorpionN 1.29 GB
Бокс, Бои без правил, К1 Бокс. Лукас Маттиссе - Виктор Постол + Андеркарт [03.10] (2015) HDTV 720p | 60 fps Russian Mafia 6.45 GB
Научная и техническая литература Галина Гребенщикова - Линейный корабль «Двенадцать апостолов» (2016) PDF достали все 22 MB
Фильмы (HD Rips | 720p, 1080p) Добро пожаловать, или Посторонним вход воспрещён (Элем Климов) [1964, СССР, комедия, BDRip 1080p] TorrentFilm 9.91 GB
Фильмы (HD Rips | 720p, 1080p) Добро пожаловать, или Посторонним вход воспрещён (Элем Климов) [1964, СССР, комедия, семейный, BDRip 720p] TorrentFilm 4.77 GB
Фильмы (HD Rips | 720p, 1080p) Добро пожаловать, или Посторонним вход воспрещен (Элем Климов) [1964, СССР, комедия, семейный, Blu-ray Disc 1080p] TorrentFilm 19.38 GB
Фильмы (DVD 5/9) Добро пожаловать, или Посторонним вход воспрещен (Элем Климов) [1964, СССР, Комедия,Blu ray > DVD9 (Custom)] + Sub Rus,Eng + Original Rus(DTS 5.1;AC3 5.1;AC3 1.0) TorrentFilm 4.93 GB
Документальные HD Землеройка-убийца / Shrew Killer (Дженни Апостол /Jenny Apostol) [2014, Документальный, HDTVRip 720p] TorrentFilm 1.65 GB
Показать сообщения:    

Текущее время: Сегодня 22:41

Часовой пояс: GMT



Вы не можете начинать темы
Вы не можете отвечать на сообщения
Вы не можете редактировать свои сообщения
Вы не можете удалять свои сообщения
Вы не можете голосовать в опросах
Вы не можете прикреплять файлы к сообщениям
Вы не можете скачивать файлы