Постельные сцены / Bedways (Рольф Петер Каль / Rolf Peter Kahl) [2010, Германия, драма, мелодрама, музыка, DVDRip] Sub Rus (Антон Каптелов) + Original Ger

 
Автор Сообщение

TorrentFilm ®

Пол:

Стаж: 2 года

Сообщений: 7741



Награды: Нет

Торрент-статистика

Создавать темы 25-Фев-2016 00:08

[Цитировать]

Постельные сцены / Bedways
Страна: Германия
Жанр: драма, мелодрама, музыка
Год выпуска: 2010
Продолжительность: 01:15:18
Перевод: Субтитры (Антон Каптелов)
Cубтитры: русские
Оригинальная аудиодорожка: немецкий
Режиссер: Рольф Петер Каль / Rolf Peter Kahl
В ролях: Мириам Майет, Матиас Фауст, Лана Купер, Арно Фриш, Лаура Тонке, Мориц Росс, Хельге-Бьёрн Мейер, Уте Швидден
Описание: Режиссер Нина Баден хочет снять картину о любви и сексе, в которой чувства можно было бы ощутить на физиологическом уровне. Она устраивает кинопробы будущего фильма, на которые приглашает двоих знакомых актеров — Ганса и Мари. Кинематографический эксперимент с обнаженными телами и игру в любовь запутывает отношения трех людей, которые уже не могут понять, где заканчивается актерская игра и начинаются настоящие эмоции...
Официальный заключительный фильм Международного Берлинского кинофестиваля 2011г.

Внимание! Фильм рассчитан на взрослого адекватного зрителя!
Сэмпл: http://multi-up.com/1090359
Качество видео: DVDRip
Формат видео: AVI
Видео: 720x544 (1.32:1), 25 fps, XviD MPEG-4 ~2137 kbps avg, 0.22 bit/pixel
Аудио: 48 kHz, AC3 Dolby Digital, 3/2 (L,C,R,l,r) + LFE ch, ~448 kbps
Формат субтитров: softsub (SRT)
Доп. информация о субтитрах: Антон Каптелов

MediaInfo

Общее
Полное имя : E:\Bedways_2010.DVDRip\Bedways_2010.DVDRip.avi
Формат : AVI
Формат/Информация : Audio Video Interleave
Размер файла : 1,37 Гбайт
Продолжительность : 1 ч. 15 м.
Общий поток : 2595 Кбит/сек
Видео
Идентификатор : 0
Формат : MPEG-4 Visual
Профиль формата : Advanced Simple@L5
Параметр BVOP формата : 2
Параметр QPel формата : Нет
Параметр GMC формата : Без точки перехода
Параметр матрицы формата : Default (H.263)
Идентификатор кодека : XVID
Идентификатор кодека/Подсказка : XviD
Продолжительность : 1 ч. 15 м.
Битрейт : 2138 Кбит/сек
Ширина : 720 пикселей
Высота : 544 пикселя
Соотношение сторон : 4:3
Частота кадров : 25,000 кадров/сек
Цветовое пространство : YUV
Субдискретизация насыщенности : 4:2:0
Битовая глубина : 8 бит
Тип развёртки : Прогрессивная
Метод сжатия : С потерями
Бит/(Пиксели*Кадры) : 0.218
Размер потока : 1,12 Гбайт (82%)
Библиотека кодирования : XviD 58
Аудио
Идентификатор : 1
Формат : AC-3
Формат/Информация : Audio Coding 3
Расширение режима : CM (complete main)
Параметр Endianness формата : Big
Идентификатор кодека : 2000
Продолжительность : 1 ч. 15 м.
Вид битрейта : Постоянный
Битрейт : 448 Кбит/сек
Каналы : 6 каналов
Расположение каналов : Front: L C R, Side: L R, LFE
Частота : 48,0 КГц
Частота кадров : 31,250 кадров/сек (1536 spf)
Метод сжатия : С потерями
Размер потока : 241 Мбайт (17%)
Выравнивание : Разделение по промежуткам
Продолжительность промежутка : 40 мс. (1,00 видеокадр)
Время предзагрузки промежутка : 500 мс.

Образец субтитров

4
00:02:39,840 --> 00:02:42,102
Могу я прочитать сценарий?
5
00:02:42,920 --> 00:02:44,797
Если бы был, то конечно.
6
00:02:49,000 --> 00:02:51,112
А каков бюджет?
7
00:02:52,178 --> 00:02:54,171
Оператор уже приглашен?
8
00:02:55,200 --> 00:02:57,528
Ну, уж наверняка это не ты.
Ты будешь перед камерой.
9
00:02:58,480 --> 00:03:01,874
Будь осторожней, пожалуйста!
Ее взяли в аренду!
10
00:03:07,280 --> 00:03:09,650
Значит, никакого сценария
и никакого бюджета?
11
00:03:09,892 --> 00:03:11,242
Это так?
12
00:03:12,320 --> 00:03:14,668
Я знаю, чего хочу,
и этого достаточно.
13
00:03:16,600 --> 00:03:18,776
Ты хочешь меня, не так ли?
14
00:03:20,240 --> 00:03:22,027
Ты все еще наслаждаешься мной.
15
00:03:22,140 --> 00:03:25,285
Может, как актером.
Но тебе лучше вести себя хорошо!
16
00:03:28,680 --> 00:03:30,770
Отложи камеру.
17
00:03:32,340 --> 00:03:35,430
Просто делай то, что я тебе говорю делать.
И прекрати много думать!
18
00:03:44,200 --> 00:03:45,894
Она по-настоящему красивая.
19
00:03:50,280 --> 00:03:53,239
Просто реагируй на нее,
как того требует момент.
20
00:03:55,240 --> 00:03:57,284
И как же мне это сыграть?
21
00:03:59,280 --> 00:04:01,137
Просто взгляни на нее.
22
00:04:01,860 --> 00:04:03,859
И в тот же самый момент
ты в нее влюбишься.
23
00:04:03,960 --> 00:04:05,746
А она - в тебя.
24
00:04:06,983 --> 00:04:08,918
Хоть ты этого и не ждешь.

Скриншот c названием фильма

[Профиль] [ЛС]

Создавать темы 12-Июн-2016 07:53 (спустя 3 месяца 16 дней)

Топик был перенесен из форума Фильмы 2011 года в форум Фильмы 2010 года
Russian Mafia
 
Показать сообщения:    

Текущее время: Сегодня 15:36

Часовой пояс: GMT



Вы не можете начинать темы
Вы не можете отвечать на сообщения
Вы не можете редактировать свои сообщения
Вы не можете удалять свои сообщения
Вы не можете голосовать в опросах
Вы не можете прикреплять файлы к сообщениям
Вы не можете скачивать файлы