Постал / Postal (2007) BDRip 1080p

 
Автор Сообщение

Russian Mafia ®

Пол:

Стаж: 1 год 8 месяцев

Сообщений: 4257



Награды: 10 (Подробнее)

Top Releaser 5 (Количество: 1) Top Releaser 4 (Количество: 1) Mega Seeder 5 (Количество: 1)
Торрент-статистика

Создавать темы 18-Сен-2016 15:12

[Цитировать]

Информация о фильме
Название: Постал
Оригинальное название: Postal
Год выхода: 2007
Жанр: боевик, триллер, комедия
Режиссер: Уве Болл
В ролях: Зак Уорд, Дэйв Фоли, Крис Коппола, Джеки Тон, Дж.К. Симмонс, Ральф Мёллер, Верн Тройер, Крис Спенсер, Ларри Томас, Майкл Паре
О фильме: По мотивам компьютерной трэш-игры Postal. В городе Парадиз строят огромный развлекательный центр, и в один из магазинов завозят партии игрушек Крочи. Эти игрушки в форме задницы становятся объектом пристального внимания двух группировок.
Террористы хотят выкрасть их, чтобы зашить в каждую штамм вируса птичьего гриппа. А банда хиппи хочет украсть Крочи, чтобы заработать. Между этими двумя «компаниями» мечется невезучий чувак, у которого в жизни все плохо. В какой-то момент парню все надоедает, и он устраивает в Парадизе «веселую» кровавую баню…

Выпущено: Boll KG Productions
Продолжительность: 01:42:18
Перевод: Профессиональный (многоголосый, закадровый) + Авторский (Гоблин)
Файл
Кодек: x264
Качество: BDRip (источник: Blu-ray Disc)
Видео: 1920x1080 (16:9), 23.976 fps, 9776 kbps
Аудио #1: AC-3, 6 ch, 448 kbps (Многоголосый закадровый, CP-Digital)
Аудио #2: AC-3, 6 ch, 448 kbps (Одноголосый закадровый, Гоблин)
Аудио #3: AC-3, 6 ch, 448 kbps (Оригинал)
Субтитры: Русские, Английские
Скачать: сэмпл
Скриншоты

MI

Общее
Уникальный идентификатор : 187347111933530046432342376104545185136 (0x8CF1BDC4F782065B924047B9DE7F6D70)
Полное имя : Postal.2007.BDRip.1080p.Rus.Eng.mkv
Формат : Matroska
Версия формата : Version 2
Размер файла : 7,95 Гбайт
Продолжительность : 1 ч. 42 м.
Общий поток : 11,1 Мбит/сек
Название фильма : Постал / Postal (2007)
Дата кодирования : UTC 2012-01-31 07:40:08
Программа кодирования : mkvmerge v4.0.0 ('The Stars were mine') сборка от Jun 6 2010 16:18:42
Библиотека кодирования : libebml v1.0.0 + libmatroska v1.0.0
Видео
Идентификатор : 1
Формат : AVC
Формат/Информация : Advanced Video Codec
Профиль формата : High@L4.1
Параметр CABAC формата : Да
Параметр ReFrames формата : 4 кадра
Идентификатор кодека : V_MPEG4/ISO/AVC
Продолжительность : 1 ч. 42 м.
Битрейт : 9776 Кбит/сек
Ширина : 1920 пикселей
Высота : 1080 пикселей
Соотношение сторон : 16:9
Частота кадров : 23,976 кадра/сек
Цветовое пространство : YUV
Субдискретизация насыщенности : 4:2:0
Битовая глубина : 8 бит
Тип развёртки : Прогрессивная
Бит/(Пиксели*Кадры) : 0.197
Размер потока : 6,83 Гбайт (86%)
Заголовок : Release by AlexKa
Библиотека кодирования : x264 core 120 r2146 bcd41db
Настройки программы : cabac=1 / ref=4 / deblock=1:-3:-3 / analyse=0x3:0x133 / me=umh / subme=10 / psy=1 / psy_rd=1.00:0.10 / mixed_ref=1 / me_range=32 / chroma_me=1 / trellis=2 / 8x8dct=1 / cqm=0 / deadzone=21,11 / fast_pskip=0 / chroma_qp_offset=-3 / threads=12 / sliced_threads=0 / nr=0 / decimate=0 / interlaced=0 / bluray_compat=0 / constrained_intra=0 / bframes=5 / b_pyramid=2 / b_adapt=2 / b_bias=0 / direct=3 / weightb=1 / open_gop=0 / weightp=2 / keyint=240 / keyint_min=24 / scenecut=40 / intra_refresh=0 / rc_lookahead=60 / rc=2pass / mbtree=1 / bitrate=9776 / ratetol=1.0 / qcomp=0.60 / qpmin=0 / qpmax=69 / qpstep=4 / cplxblur=20.0 / qblur=0.5 / ip_ratio=1.40 / aq=1:1.00
Язык : English
Аудио #1
Идентификатор : 2
Формат : AC-3
Формат/Информация : Audio Coding 3
Расширение режима : CM (complete main)
Идентификатор кодека : A_AC3
Продолжительность : 1 ч. 42 м.
Вид битрейта : Постоянный
Битрейт : 448 Кбит/сек
Каналы : 6 каналов
Расположение каналов : Front: L C R, Side: L R, LFE
Частота : 48,0 КГц
Битовая глубина : 16 бит
Метод сжатия : С потерями
Размер потока : 328 Мбайт (4%)
Заголовок : Многоголосый, CP-Digital
Язык : Russian
Аудио #2
Идентификатор : 3
Формат : AC-3
Формат/Информация : Audio Coding 3
Расширение режима : CM (complete main)
Идентификатор кодека : A_AC3
Продолжительность : 1 ч. 42 м.
Вид битрейта : Постоянный
Битрейт : 448 Кбит/сек
Каналы : 6 каналов
Расположение каналов : Front: L C R, Side: L R, LFE
Частота : 48,0 КГц
Битовая глубина : 16 бит
Метод сжатия : С потерями
Размер потока : 328 Мбайт (4%)
Заголовок : Одноголосый, Гоблин
Язык : Russian
Аудио #3
Идентификатор : 4
Формат : AC-3
Формат/Информация : Audio Coding 3
Расширение режима : CM (complete main)
Идентификатор кодека : A_AC3
Продолжительность : 1 ч. 42 м.
Вид битрейта : Постоянный
Битрейт : 448 Кбит/сек
Каналы : 6 каналов
Расположение каналов : Front: L C R, Side: L R, LFE
Частота : 48,0 КГц
Битовая глубина : 16 бит
Метод сжатия : С потерями
Размер потока : 328 Мбайт (4%)
Заголовок : Оригинал
Язык : English
Текст #1
Идентификатор : 5
Формат : UTF-8
Идентификатор кодека : S_TEXT/UTF8
Идентификатор кодека/Информация : UTF-8 Plain Text
Заголовок : Rus
Язык : Russian
Текст #2
Идентификатор : 6
Формат : UTF-8
Идентификатор кодека : S_TEXT/UTF8
Идентификатор кодека/Информация : UTF-8 Plain Text
Заголовок : Eng
Язык : English
Меню
00:00:00.000 : :01. Opening Credits
00:07:51.304 : :02. Gluttco
00:13:28.390 : :03. Uncle Dave
00:18:52.923 : :04. Grind Zero
00:28:20.323 : :05. Taliban TV
00:37:09.435 : :06. Lil Germany
00:52:04.830 : :07. Social Worker
01:02:12.478 : :08. Avian Flu
01:05:25.504 : :09. Seminar
01:14:21.707 : :10. Armed To The Teeth
01:25:47.559 : :11. Help
01:32:03.726 : :12. End Credits

x264

x264 [info]: frame I:1371 Avg QP:18.49 size:247699
x264 [info]: frame P:36591 Avg QP:21.16 size: 98177
x264 [info]: frame B:109204 Avg QP:23.62 size: 32651
[Профиль] [ЛС]
Кто просматривает тему:

Форум Тема Автор Размер
365 365: Вызов зодчим. Страсбургский собор / Le Défi des Bâtisseurs. La Cathédrale de Strasbourg / The builder's challenge - Strasbourg (Марк Ямпольски / Marc Ja... skorpionN 750 MB
365 365: Сети истории / Storia in Rete [выпуски 1-10] (Александра Джиганте / Alessandra Gigante, Фабио Андриола / Fabio Andriola) [2009-2013 г., окументально-постановочный, история, арх... skorpionN 8.01 GB
BBC BBC: Армада. Неизвестная история (12 дней, чтобы спасти Англию) / Armada: The Untold Story (12 Days to Save England) [серии 1-3 из 3] (Робин Дешвуд / Robin Dashwood, Тим Дан / Tim Dunn) [2015... skorpionN 5.59 GB
BBC BBC: Армада. Неизвестная история (Армада: 12 дней, чтобы спасти Англию) / Armada: 12 Days to Save England [серии 1-3 из 3] (Робин Дешвуд / Robin Dashwood, Тим Дан / Tim D... skorpionN 2.16 GB
BBC BBC: Жанна д’Арк – святая воительница / Joan of Arc: God's Warrior (Luct Swindler) [2015 г., Документальный, постановочный, история, HDTVRip 720p] skorpionN 1.59 GB
BBC BBC: Замки: История укреплений Британии / Castles: Britain's Fortified History [серии 1-3 из 3] (Ben Southwell) [2014 г., Документально-постановочный, история, археология, пу... skorpionN 4.39 GB
BBC BBC: Как построить средневековый замок / Secrets of the Castle with Ruth, Peter and Tom [серии 1-5 из 5] (Стюарт Эллиотт) [2014 г., Документальный, постановочный, научно-познавательный, история,... skorpionN 6.61 GB
BBC BBC: Операция Стоунхендж. Тайна, скрытая под камнями / Operation Stonehenge: What Lies Beneath [серии 1-2 из 2] (Джереми Тернер / Jeremy Turner) [2014 г., Документально-постановочный, история,... skorpionN 3.27 GB
Показать сообщения:    

Текущее время: Сегодня 13:49

Часовой пояс: GMT



Вы не можете начинать темы
Вы не можете отвечать на сообщения
Вы не можете редактировать свои сообщения
Вы не можете удалять свои сообщения
Вы не можете голосовать в опросах
Вы не можете прикреплять файлы к сообщениям
Вы не можете скачивать файлы