Посредник / The go-between (Пит Трэвис / Pete Travis) [2015, Великобритания, мелодрама, экранизация, HDTVRip] Sub Rus + Original Eng

 
Автор Сообщение

TorrentFilm ®

Пол:

Стаж: 2 года

Сообщений: 7741



Награды: Нет

Торрент-статистика

Создавать темы 03-Окт-2015 00:06

[Цитировать]

Посредник / The go-between
Страна: Великобритания
Жанр: мелодрама, экранизация
Год выпуска: 2015
Продолжительность: 01:29:10
Перевод: Субтитры (М.Васильев)
Cубтитры: русские
Оригинальная аудиодорожка: английский
Режиссер: Пит Трэвис / Pete Travis
В ролях: Джэк Холлингтон, Джим Бродбент, Джонна Вандерхэм, Бен Бэтт, Стивен Кемпбел Мур, Лесли Манвиль, Ванесса Редгрейв
Описание: 1900 год. 12-летний Лео проводит каникулы, отдыхая в роскошном поместье своего одноклассника. Здесь он становится свидетелем, а затем невольным участником романтической и драматической истории, в которой переплелись любовь, страсть, ложь и ненависть...
Доп. информация: Телевизионный фильм канала BBC.
Премьера: 20 сентября 2015
"Посредник" - роман английского писателя Хартли (L P Hartley), изданный в 1953 году. С тех пор книга обрела статус культовой и "знакового романа в новейшей истории британской литературы". Как и любое произведение, с трудом поддающееся адаптации, роман всегда привлекал повышенное внимание. По мотивам книги был поставлен спектакль, написаны мюзикл и опера (а еще есть комикс и упрощенная версия для нужд школьников). В 1970 году вышел фильм, собравший внушительную коллекцию наград. Это вторая попытка экранизировать роман.
Поскольку авторы фильма исходили из того, что все читали оригинал, они сосредоточились на главной сюжетной линии, выкинув все остальные. Так, в фильме остались лишь намеки на несчастливое детство главного героя, его проблемы с одноклассниками и увлечение магией.
IMDB
Сэмпл
Качество видео: HDTVRip (найден в сети)
Формат видео: MP4
Видео: 1404 Kbps, 832x468 (16:9), 25 000 fps, AVC
Аудио: 93,5 Kbps, 48.0 KHz, 2 ch, AAC
Формат субтитров: softsub (SRT)

MediaInfo

General
Complete name : C:\Users\master\Documents\Downloads\The.Go-Between.2015.mp4
Format : MPEG-4
Format profile : Base Media
Codec ID : isom
File size : 962 MiB
Duration : 1h 29mn
Overall bit rate mode : Constant
Overall bit rate : 1 508 Kbps
Collection : The Go-Between
Season : 1
Album : The Go-Between
Album/Performer : BBC TV
Part : 1
Part/Position : 1
Track name : The Go-Between
Track name/Position : 1
Grouping : Drama,Historical
Performer : BBC One
Composer : BBC One
Genre : Drama
ContentType : TV Show
Recorded date : 2015-09-20T21:00:00+01:00
Tagged date : UTC 2015-09-20 22:00:55
Writing application : Lavf55.33.100
Cover : Yes
TVNetworkName : BBC One
Video
ID : 1
Format : AVC
Format/Info : Advanced Video Codec
Format profile : Main@L3.1
Format settings, CABAC : Yes
Format settings, ReFrames : 2 frames
Format settings, GOP : M=4, N=125
Codec ID : avc1
Codec ID/Info : Advanced Video Coding
Duration : 1h 29mn
Bit rate mode : Constant
Bit rate : 1 404 Kbps
Width : 832 pixels
Height : 468 pixels
Display aspect ratio : 16:9
Frame rate mode : Constant
Frame rate : 25.000 fps
Color space : YUV
Chroma subsampling : 4:2:0
Bit depth : 8 bits
Scan type : Progressive
Bits/(Pixel*Frame) : 0.144
Stream size : 895 MiB (93%)
Audio
ID : 2
Format : AAC
Format/Info : Advanced Audio Codec
Format profile : LC
Codec ID : 40
Duration : 1h 29mn
Bit rate mode : Constant
Bit rate : 93.5 Kbps
Channel(s) : 2 channels
Channel positions : Front: L R
Sampling rate : 48.0 KHz
Compression mode : Lossy
Stream size : 59.6 MiB (6%)

Скриншот c названием фильма

Скриншоты





Титры

1
00:00:09,280 --> 00:00:15,480
ПОСРЕДНИК
2
00:00:48,320 --> 00:00:50,040
Прошлое - это другая страна.
3
00:00:51,360 --> 00:00:53,280
Там все иначе.
4
00:00:54,600 --> 00:00:59,160
Почти всю жизнь я пытался
убежать от своего прошлого,
5
00:00:59,160 --> 00:01:01,960
запрятать подальше
его страшные секреты,
6
00:01:03,480 --> 00:01:04,640
зарыть их поглубже...
7
00:01:17,960 --> 00:01:22,000
Почему ты стал таким унылым,
ведь все так хорошо начиналось...
8
00:01:23,040 --> 00:01:24,720
Это твоя вина.
9
00:01:26,200 --> 00:01:30,080
Ты поднялся слишком высоко,
солнце обожгло твои крылья.
10
00:01:30,080 --> 00:01:33,800
Из-за тебя я стал
развалиной и занудой.
11
00:01:33,800 --> 00:01:36,520
У тебя было 50 лет,
чтобы с этим справиться.
12
00:01:39,800 --> 00:01:41,040
Он был прав.
13
00:01:42,040 --> 00:01:44,440
Я прожил всю жизнь
в тени прошлого...
14
00:01:48,240 --> 00:01:50,040
боясь, что оно разрушит
мою жизнь.
15
00:01:52,320 --> 00:01:53,640
Так и вышло.
16
00:03:08,040 --> 00:03:09,280
Маркус.
17
00:03:10,400 --> 00:03:13,600
Иди скорей.
Покажу мою комнату.
18
00:03:36,240 --> 00:03:39,600
А ты живешь
в таком же доме?
19
00:03:41,960 --> 00:03:44,240
Ну, да...
20
00:03:44,240 --> 00:03:45,560
Пошли.
21
00:04:06,720 --> 00:04:10,400
Папа говорит,
это самый большой дом в Норфолке.
22
00:04:10,400 --> 00:04:11,800
А он здесь?
23
00:04:11,800 --> 00:04:14,760
Нет, остался на лето
в городе.
24
00:04:43,320 --> 00:04:45,320
Мальчики, если
хотите пить,
25
00:04:45,320 --> 00:04:49,440
там есть замечательный
лимонад, идите налейте себе.
[Профиль] [ЛС]
Показать сообщения:    

Текущее время: Сегодня 05:14

Часовой пояс: GMT



Вы не можете начинать темы
Вы не можете отвечать на сообщения
Вы не можете редактировать свои сообщения
Вы не можете удалять свои сообщения
Вы не можете голосовать в опросах
Вы не можете прикреплять файлы к сообщениям
Вы не можете скачивать файлы