После падения / After the Fall (Заар Клейн / Saar Klein) [2014, США, драма, криминал, WEB-DLRip] VO (PashaUp)

 
Автор Сообщение

TorrentFilm ®

Пол:

Стаж: 2 года 9 месяцев

Сообщений: 7763



Награды: Нет

Торрент-статистика

Создавать темы 01-Янв-2015 00:00

[Цитировать]

После падения / After the Fall
Страна: США
Жанр: драма, криминал
Год выпуска: 2014
Продолжительность: 01:49:23
Перевод: Одноголосый (закадровый) [PashaUp] по переводу [kalich411]
Оригинальная аудиодорожка: нет
Cубтитры: нет
Режиссер: Заар Клейн / Saar Klein
В ролях:Уэс Бентли, Винесса Шоу, Хейли Беннетт, Джейсон Айзекс, Одри Уолтерс, Лайонел Арчулета, Бет Бэйли, Райан Бегей, Джереми Битсуи
Описание: Потеряв работу, Билл Сканлин не решается признаться в этом своей супруге Сьюзен, боясь, что та оставит его. Теперь Билл вынужден зарабатывать на жизнь криминалом. Ситуация осложняется тем, что его лучший друг – полицейский детектив Фрэнк МакТирнан. Но когда Билл встречает очаровательную Руби, он начинает совершать преступления в её честь, и вскоре ему даже начинает нравиться его новая жизнь.

Качество: WEB-DLRip
Контейнер: AVI
Видео: 720x304 (2.37:1), 23.976 fps, XviD MPEG-4 ~1496 kbps avg, 0.28 bit/pixel
Аудио: 48 kHz, AC3 Dolby Digital, 3/2 (L,C,R,l,r) + LFE ch, ~384 kbps

MI

General
Complete name : D:\Мои рипы\After.the.Fall.2014.WEB-DLRip.1500mb.avi
Format : AVI
Format/Info : Audio Video Interleave
File size : 1.45 GiB
Duration : 1h 49mn
Overall bit rate : 1 890 Kbps
Writing application : VirtualDubModRus 1.5.10.2 (build 2542/release)
Writing library : VirtualDubMod build 2542/release
Video
ID : 0
Format : MPEG-4 Visual
Format profile : Advanced Simple@L5
Format settings, BVOP : 2
Format settings, QPel : No
Format settings, GMC : No warppoints
Format settings, Matrix : Default (H.263)
Codec ID : XVID
Codec ID/Hint : XviD
Duration : 1h 49mn
Bit rate : 1 497 Kbps
Width : 720 pixels
Height : 304 pixels
Display aspect ratio : 2.35:1
Frame rate : 23.976 fps
Color space : YUV
Chroma subsampling : 4:2:0
Bit depth : 8 bits
Scan type : Progressive
Compression mode : Lossy
Bits/(Pixel*Frame) : 0.285
Stream size : 1.15 GiB (79%)
Writing library : XviD 64
Audio
ID : 1
Format : AC-3
Format/Info : Audio Coding 3
Mode extension : CM (complete main)
Format settings, Endianness : Big
Codec ID : 2000
Duration : 1h 49mn
Bit rate mode : Constant
Bit rate : 384 Kbps
Channel(s) : 6 channels
Channel positions : Front: L C R, Side: L R, LFE
Sampling rate : 48.0 KHz
Bit depth : 16 bits
Compression mode : Lossy
Stream size : 302 MiB (20%)
Alignment : Split accross interleaves
Interleave, duration : 42 ms (1.00 video frame)
Interleave, preload duration : 500 ms

Скриншоты

[Профиль] [ЛС]
Кто просматривает тему:

Форум Тема Автор Размер
Pop (Pop) Анастасия Стоцкая - Последний Шаг - 2015, MP3, 320 kbps достали все 103 MB
Rock (Rock)Кино (Виктор Цой) - Последние записи - 1990 (опубликовано 2002), FLAC (image+.cue), lossless sergej644 466 MB
Rock (Рок) Белый проект - Последний день на Земле - 2015, MP3, 320 kbps достали все 54 MB
Фильмы 2016 года 1898. Последние на Филиппинах / 1898. Los últimos de Filipinas (2016) HDRip | L BOSS 2.05 GB
BBC BBC: Последние царственные воины Европы (1066: Год, чтобы покорить Англию) / Europe's Last Warrior Kings (1066: A Year to Conquer England) [серии 1-3 из 3](Tim Dunn, Robin Dashwood) [2016 ... skorpionN 10.25 GB
Культура и искусство BBC: Саймон Шама о Рембрандте. Шедевры последних лет / Schama on Rembrandt: Masterpieces of the Late Years (Франк Ханли / Frank Hanly) [2014 г., Документальный, искусство, биография, HDTVRip-AVC... skorpionN 1.75 GB
BBC BBC: Скрытые убийцы в домах послевоенного времени / Hidden Killers of The Post War Home (Suzanne Phillips) [2015 г., Документальный, история, HDTVRip 720p] skorpionN 1.8 GB
BBC BBC: Шотландия. Последний рубеж Рима / Scotland: Rome's Final Frontier (Andy Twaddle) [2012 г., Документальный, история. археология, HDTVRip-AVC 720p] skorpionN 2.12 GB
Показать сообщения:    

Текущее время: Сегодня 23:37

Часовой пояс: GMT



Вы не можете начинать темы
Вы не можете отвечать на сообщения
Вы не можете редактировать свои сообщения
Вы не можете удалять свои сообщения
Вы не можете голосовать в опросах
Вы не можете прикреплять файлы к сообщениям
Вы не можете скачивать файлы