После нашей эры / After Earth (2013) BDRip 1080p

 
Автор Сообщение

sergej644 ®

Пол:

Стаж: 4 года 11 месяцев

Сообщений: 6046

Откуда: Soviet Union



Награды: Нет

Торрент-статистика

Создавать темы 21-Янв-2015 21:51

[Цитировать]

Информация о фильме
Название: После нашей эры
Оригинальное название: After Earth
Год выхода: 2013
Жанр: фантастика, приключения, боевик
Режиссер: М. Найт Шьямалан
В ролях: Джейден Смит, Уилл Смит, Софи Оконедо, Зои Кравиц, Гленн Моршауэр, Кристофер Хивджу, Саша Дхаван, Крис Гир, Диего Клаттенхофф, Дэвид Денман
О фильме:
События разворачиваются через тысячу лет после катастрофы, вынудившей человечество покинуть Землю. Новым домом становится планета под названием Нова Прайм. Легендарный генерал Сайфер Рейдж возвращается с очередного боевого задания в семью, которая раньше обходилась без его родительского внимания, чтобы стать отцом своему 13-летнему сыну Китаю. Во время астероидной бури летательный аппарат с папой и сыном на борту терпит крушение, падая на незнакомую и опасную Землю. И пока Рейдж-старший на последнем дыхании лежит среди обломков своего корабля, сын должен пересечь враждебный ландшафт, чтобы запустить их спасательный маячок. Ни о чем большем юноша в своей жизни не мечтал: быть солдатом, как отец, - его заветное желание. Сегодня у него есть шанс проявить себя.

Выпущено: США
Студия: Columbia Pictures
Продолжительность: 01:40:02
Перевод: Дублированный (лицензия) + Оригинал
Файл
Кодек: x264
Качество: BDRip (источник: Blu-ray Disc)
Видео: 1920x802 (2,40:1), 23.976 fps, 7355 kbps
Аудио #1: AC-3, 6 ch, 448 kbps (Rus)
Аудио #2: AC-3, 6 ch, 448 kbps (Eng)
Субтитры: Русские (Forced), Русские, Английские

Скриншоты

MI

Общее
Уникальный идентификатор : 218683466732004449545344252164972022837 (0xA484E7585E8716F6A96C119C5CD50C35)
Полное имя : F:РипыAfter.Earth.2013.BDRip.1080p.Rus.Eng.mkv
Формат : Matroska
Версия формата : Version 2
Размер файла : 5,77 Гбайт
Продолжительность : 1 ч. 40 м.
Общий поток : 8254 Кбит/сек
Название фильма : После нашей эры / After Earth (2013)
Дата кодирования : UTC 2013-10-07 20:59:31
Программа кодирования : mkvmerge v5.8.0 ('No Sleep / Pillow') built on Sep 2 2012 15:37:04
Библиотека кодирования : libebml v1.2.3 + libmatroska v1.3.0
Attachment : Yes
Видео
Идентификатор : 1
Формат : AVC
Формат/Информация : Advanced Video Codec
Профиль формата : High@L4.1
Параметр CABAC формата : Да
Параметр ReFrames формата : 5 кадров
Идентификатор кодека : V_MPEG4/ISO/AVC
Продолжительность : 1 ч. 40 м.
Битрейт : 7355 Кбит/сек
Ширина : 1920 пикселей
Высота : 802 пикселя
Соотношение сторон : 2,40:1
Режим частоты кадров : Постоянный
Частота кадров : 23,976 кадра/сек
Цветовое пространство : YUV
Субдискретизация насыщенности : 4:2:0
Битовая глубина : 8 бит
Тип развёртки : Прогрессивная
Бит/(Пиксели*Кадры) : 0.199
Размер потока : 5,03 Гбайт (87%)
Заголовок : Release by N1NT3NDO
Библиотека кодирования : x264 core 138 r2358 9e941d1
Настройки программы : cabac=1 / ref=5 / deblock=1:-3:-3 / analyse=0x3:0x133 / me=umh / subme=11 / psy=1 / psy_rd=1.00:0.00 / mixed_ref=1 / me_range=32 / chroma_me=1 / trellis=2 / 8x8dct=1 / cqm=0 / deadzone=21,11 / fast_pskip=0 / chroma_qp_offset=-2 / threads=12 / lookahead_threads=1 / sliced_threads=0 / nr=0 / decimate=0 / interlaced=0 / bluray_compat=0 / constrained_intra=0 / bframes=6 / b_pyramid=2 / b_adapt=2 / b_bias=0 / direct=3 / weightb=1 / open_gop=0 / weightp=2 / keyint=240 / keyint_min=23 / scenecut=40 / intra_refresh=0 / rc_lookahead=80 / rc=2pass / mbtree=0 / bitrate=7355 / ratetol=1.0 / qcomp=0.60 / qpmin=0 / qpmax=69 / qpstep=4 / cplxblur=20.0 / qblur=0.5 / vbv_maxrate=50000 / vbv_bufsize=62500 / nal_hrd=none / ip_ratio=1.40 / pb_ratio=1.30 / aq=1:1.00
Язык : English
Default : Да
Forced : Нет
Аудио #1
Идентификатор : 2
Формат : AC-3
Формат/Информация : Audio Coding 3
Расширение режима : CM (complete main)
Параметр Endianness формата : Big
Идентификатор кодека : A_AC3
Продолжительность : 1 ч. 40 м.
Вид битрейта : Постоянный
Битрейт : 448 Кбит/сек
Каналы : 6 каналов
Расположение каналов : Front: L C R, Side: L R, LFE
Частота : 48,0 КГц
Битовая глубина : 16 бит
Метод сжатия : С потерями
Размер потока : 321 Мбайт (5%)
Заголовок : Rus
Язык : Russian
Default : Да
Forced : Нет
Аудио #2
Идентификатор : 3
Формат : AC-3
Формат/Информация : Audio Coding 3
Расширение режима : CM (complete main)
Параметр Endianness формата : Big
Идентификатор кодека : A_AC3
Продолжительность : 1 ч. 40 м.
Вид битрейта : Постоянный
Битрейт : 448 Кбит/сек
Каналы : 6 каналов
Расположение каналов : Front: L C R, Side: L R, LFE
Частота : 48,0 КГц
Битовая глубина : 16 бит
Метод сжатия : С потерями
Размер потока : 321 Мбайт (5%)
Заголовок : Eng
Язык : English
Default : Нет
Forced : Нет
Текст #1
Идентификатор : 4
Формат : UTF-8
Идентификатор кодека : S_TEXT/UTF8
Идентификатор кодека/Информация : UTF-8 Plain Text
Заголовок : Rus (Forced)
Язык : Russian
Default : Да
Forced : Нет
Текст #2
Идентификатор : 5
Формат : UTF-8
Идентификатор кодека : S_TEXT/UTF8
Идентификатор кодека/Информация : UTF-8 Plain Text
Заголовок : Rus
Язык : Russian
Default : Нет
Forced : Нет
Текст #3
Идентификатор : 6
Формат : UTF-8
Идентификатор кодека : S_TEXT/UTF8
Идентификатор кодека/Информация : UTF-8 Plain Text
Заголовок : Eng
Язык : English
Default : Нет
Forced : Нет
Меню
00:00:00.000 : :Chapter 01
00:08:52.696 : :Chapter 02
00:15:36.393 : :Chapter 03
00:21:34.791 : :Chapter 04
00:30:50.556 : :Chapter 05
00:36:45.952 : :Chapter 06
00:41:14.429 : :Chapter 07
00:47:06.072 : :Chapter 08
00:52:36.318 : :Chapter 09
00:59:48.585 : :Chapter 10
01:05:25.795 : :Chapter 11
01:11:10.180 : :Chapter 12
01:15:47.332 : :Chapter 13
01:20:17.686 : :Chapter 14
01:24:38.782 : :Chapter 15
01:29:57.390 : :Chapter 16
[Профиль] [ЛС]
Показать сообщения:    

Текущее время: Сегодня 14:59

Часовой пояс: GMT



Вы не можете начинать темы
Вы не можете отвечать на сообщения
Вы не можете редактировать свои сообщения
Вы не можете удалять свои сообщения
Вы не можете голосовать в опросах
Вы не можете прикреплять файлы к сообщениям
Вы не можете скачивать файлы