После Валькирии: Рассвет четвертого Рейха / Beyond Valkyrie: Dawn of the 4th Reich (2016) WEB-DL 1080p | iTunes

 
Автор Сообщение

достали все ®

Пол:

Стаж: 1 год 8 месяцев

Сообщений: 6536



Награды: 12 (Подробнее)

Mega Releaser 2 (Количество: 1) За внесенный вклад в развитие сайта (Количество: 1) Mega Seeder 2 (Количество: 1)
Торрент-статистика

Создавать темы 04-Окт-2016 04:21

[Цитировать]

Информация о фильме
Название: После Валькирии: Рассвет четвертого Рейха
Оригинальное название: Beyond Valkyrie: Dawn of the 4th Reich
Год выпуска: 2016
Страна: США
Жанр: боевик, военный, история-Перевод: Профессиональный многоголосый [iTunes]
Субтитры: английские (Forced)
Продолжительность: 01:40:34-Режиссер: Клаудио Фах
В ролях: Шон Патрик Флэнери (Captain Evan Blackburn), Том Сайзмор (Master Sergeant O'Malley), Кип Парду (Clarence Edward), Стивен Лэнг (General Emil F. Reinhardt), Рутгер Хауэр (Oskar Halminski), Эрик Ладин (Robert Sites), Йоханнес Херршманн (Adam von König), Павел Личникофф (Major Aleksandr Kulkov), Tom Padley (Theodore Dix), Юли Энгельбрехт (Elke Schroeder), Майкл Епп (Karl Krauss), Эндрю Байрон (Tolstoy)-Описание:
События разворачиваются ближе к концу Второй Мировой. В тыл к нацистам отправляют группу американо-британского спецназа, чтобы вызволить из лап врага очень важного бойца сопротивления...-Рейтинг:

MPAA: R - Лицам до 17 лет обязательно присутствие взрослого-Качество: WEB-DL 1080p
Формат: MKV
Видео: AVC, 1916x1032 (1.85:1), 5263 kbps, 23,976 fps, 0,111 bpp
Аудио №1: русский / AC3 / 5.1 / 48 kHz / 384 kbps / |MVO, iTunes|
Аудио №2: английский / AC3 / 5.1 / 48 kHz / 384 kbps /
Навигация по главам: есть
Сэмпл-

ОтчетМедиаИнфо

General
Unique ID : 176449675453807485990495595325529427082 (0x84BEF8AB45676861A341BD008B5E8C8A)
Complete name : E:\Beyond.Valkyrie.Dawn.of.the.Fourth.Reich.2016.1080p.WEB-DL.DD5.1.H264.mkv
Format : Matroska
Format version : Version 4 / Version 2
File size : 4.24 GiB
Duration : 1 h 40 min
Overall bit rate : 6 033 kb/s
Movie name : Beyond.Valkyrie.Dawn.of.the.Fourth.Reich.2016.1080p.WEB-DL.DD5.1.H264
Encoded date : UTC 2016-10-03 19:35:26
Writing application : mkvmerge v9.4.2 ('So High') 64bit
Writing library : libebml v1.3.4 + libmatroska v1.4.5
Video
ID : 1
Format : AVC
Format/Info : Advanced Video Codec
Format profile : High@L4
Format settings, CABAC : Yes
Format settings, ReFrames : 4 frames
Codec ID : V_MPEG4/ISO/AVC
Duration : 1 h 40 min
Bit rate : 5 263 kb/s
Width : 1 916 pixels
Height : 1 032 pixels
Display aspect ratio : 1.85:1
Frame rate mode : Constant
Frame rate : 23.976 (23976/1000) FPS
Color space : YUV
Chroma subsampling : 4:2:0
Bit depth : 8 bits
Scan type : Progressive
Bits/(Pixel*Frame) : 0.111
Stream size : 3.70 GiB (87%)
Language : English
Default : Yes
Forced : No
Color range : Limited
Color primaries : BT.709
Transfer characteristics : BT.709
Matrix coefficients : BT.709
Audio #1
ID : 2
Format : AC-3
Format/Info : Audio Coding 3
Mode extension : CM (complete main)
Format settings, Endianness : Big
Codec ID : A_AC3
Duration : 1 h 40 min
Bit rate mode : Constant
Bit rate : 384 kb/s
Channel(s) : 6 channels
Channel positions : Front: L C R, Side: L R, LFE
Sampling rate : 48.0 kHz
Frame rate : 31.250 FPS (1536 spf)
Compression mode : Lossy
Stream size : 276 MiB (6%)
Title : MVO iTunes
Language : Russian
Default : Yes
Forced : Yes
Audio #2
ID : 3
Format : AC-3
Format/Info : Audio Coding 3
Mode extension : CM (complete main)
Format settings, Endianness : Big
Codec ID : A_AC3
Duration : 1 h 40 min
Bit rate mode : Constant
Bit rate : 384 kb/s
Channel(s) : 6 channels
Channel positions : Front: L C R, Side: L R, LFE
Sampling rate : 48.0 kHz
Frame rate : 31.250 FPS (1536 spf)
Compression mode : Lossy
Stream size : 276 MiB (6%)
Title : Original
Language : English
Default : No
Forced : No
Text
ID : 4
Format : UTF-8
Codec ID : S_TEXT/UTF8
Codec ID/Info : UTF-8 Plain Text
Duration : 53 min
Bit rate : 4 b/s
Count of elements : 56
Stream size : 1.59 KiB (0%)
Title : FORCED
Language : English
Default : Yes
Forced : No
Menu
00:00:00.000 : en:1
00:05:01.801 : en:2
00:09:38.661 : en:3
00:18:20.849 : en:4
00:21:20.445 : en:5
00:24:46.776 : en:6
00:33:42.686 : en:7
00:37:28.953 : en:8
00:44:40.259 : en:9
00:54:40.275 : en:10
01:00:14.400 : en:11
01:06:30.150 : en:12
01:12:29.342 : en:13
01:18:50.431 : en:14
01:25:52.686 : en:15
01:34:57.814 : en:16

Скриншоты

[Профиль] [ЛС]
Показать сообщения:    

Текущее время: Сегодня 06:23

Часовой пояс: GMT



Вы не можете начинать темы
Вы не можете отвечать на сообщения
Вы не можете редактировать свои сообщения
Вы не можете удалять свои сообщения
Вы не можете голосовать в опросах
Вы не можете прикреплять файлы к сообщениям
Вы не можете скачивать файлы