После Валькирии: Рассвет четвертого Рейха / Beyond Valkyrie: Dawn of the 4th Reich (2016) WEB-DL 720p | iTunes

 
Автор Сообщение

достали все ®

Пол:

Стаж: 1 год 8 месяцев

Сообщений: 6525



Награды: 12 (Подробнее)

Mega Releaser 2 (Количество: 1) Mega Releaser 3 (Количество: 1) Mega Seeder 4 (Количество: 1)
Торрент-статистика

Создавать темы 04-Окт-2016 03:11

[Цитировать]

Информация о фильме
Название: После Валькирии: Рассвет четвертого Рейха
Оригинальное название: Beyond Valkyrie: Dawn of the 4th Reich
Год выпуска: 2016
Страна: США
Жанр: боевик, военный, история-Перевод: Профессиональный многоголосый [iTunes]
Продолжительность: 01:40:34-Режиссер: Клаудио Фах
В ролях: Шон Патрик Флэнери (Captain Evan Blackburn), Том Сайзмор (Master Sergeant O'Malley), Кип Парду (Clarence Edward), Стивен Лэнг (General Emil F. Reinhardt), Рутгер Хауэр (Oskar Halminski), Эрик Ладин (Robert Sites), Йоханнес Херршманн (Adam von König), Павел Личникофф (Major Aleksandr Kulkov), Tom Padley (Theodore Dix), Юли Энгельбрехт (Elke Schroeder), Майкл Епп (Karl Krauss), Эндрю Байрон (Tolstoy)-Описание:
События разворачиваются ближе к концу Второй Мировой. В тыл к нацистам отправляют группу американо-британского спецназа, чтобы вызволить из лап врага очень важного бойца сопротивления...-Рейтинг:

MPAA: R - Лицам до 17 лет обязательно присутствие взрослого-Качество: WEB-DL 720p
Формат: MKV
Видео: AVC, 1280x690 (1.85:1), 3859 kbps, 23,976 fps, 0,182 bpp
Аудио №1: русский / AC3 / 5.1 / 48 kHz / 384 kbps / |MVO, iTunes|
Аудио №2: английский / AAC LC / 2.0 / 48 kHz / 157 kbps /
Навигация по главам: есть
Сэмпл-

ОтчетМедиаИнфо

General
Unique ID : 239640345692789457196126761445158369936 (0xB4490D407DB4E3EF955F674807113A90)
Complete name : E:OperciYa.ValkiRiYa.2O16.P.WEB-DL.72Op.mkv
Format : Matroska
Format version : Version 2
File size : 3.09 GiB
Duration : 1 h 40 min
Overall bit rate : 4 404 kb/s
Encoded date : UTC 2016-10-03 10:03:18
Writing application : mkvmerge v8.3.0 ('Over the Horizon') 64bit
Writing library : libebml v1.3.1 + libmatroska v1.4.2
Video
ID : 1
Format : AVC
Format/Info : Advanced Video Codec
Format profile : High@L4.1
Format settings, CABAC : Yes
Format settings, ReFrames : 9 frames
Codec ID : V_MPEG4/ISO/AVC
Duration : 1 h 40 min
Bit rate : 3 860 kb/s
Width : 1 280 pixels
Height : 690 pixels
Display aspect ratio : 1.85:1
Frame rate mode : Constant
Frame rate : 23.976 (24000/1001) FPS
Color space : YUV
Chroma subsampling : 4:2:0
Bit depth : 8 bits
Scan type : Progressive
Bits/(Pixel*Frame) : 0.182
Stream size : 2.71 GiB (88%)
Default : Yes
Forced : No
Audio #1
ID : 2
Format : AC-3
Format/Info : Audio Coding 3
Mode extension : CM (complete main)
Format settings, Endianness : Big
Codec ID : A_AC3
Duration : 1 h 40 min
Bit rate mode : Constant
Bit rate : 384 kb/s
Channel(s) : 6 channels
Channel positions : Front: L C R, Side: L R, LFE
Sampling rate : 48.0 kHz
Frame rate : 31.250 FPS (1536 spf)
Compression mode : Lossy
Stream size : 276 MiB (9%)
Language : Russian
Default : Yes
Forced : Yes
Audio #2
ID : 3
Format : AAC
Format/Info : Advanced Audio Codec
Format profile : LC
Codec ID : A_AAC
Duration : 1 h 40 min
Bit rate : 158 kb/s
Channel(s) : 2 channels
Channel positions : Front: L R
Sampling rate : 48.0 kHz
Frame rate : 46.875 FPS (1024 spf)
Compression mode : Lossy
Stream size : 113 MiB (4%)
Language : English
Default : No
Forced : No
Menu
00:00:00.000 : en:1
00:05:01.801 : en:2
00:09:38.661 : en:3
00:18:20.849 : en:4
00:21:20.445 : en:5
00:24:46.776 : en:6
00:33:42.686 : en:7
00:37:28.953 : en:8
00:44:40.259 : en:9
00:54:40.275 : en:10
01:00:14.400 : en:11
01:06:30.150 : en:12
01:12:29.342 : en:13
01:18:50.431 : en:14
01:25:52.686 : en:15
01:34:57.814 : en:16

Скриншоты

[Профиль] [ЛС]
Показать сообщения:    

Текущее время: Сегодня 11:54

Часовой пояс: GMT



Вы не можете начинать темы
Вы не можете отвечать на сообщения
Вы не можете редактировать свои сообщения
Вы не можете удалять свои сообщения
Вы не можете голосовать в опросах
Вы не можете прикреплять файлы к сообщениям
Вы не можете скачивать файлы