После бури / Umi yori mo mada fukaku (2016) BDRip 720p | L

 
Автор Сообщение

BOSS ®

Пол:

Стаж: 3 года 2 месяца

Сообщений: 8630

Откуда: ODESSA



Награды: 22 (Подробнее)

Top Keeper 3 (Количество: 1) Mega Seeder 4 (Количество: 1) Top Seeder 3 (Количество: 1)
Торрент-статистика

Создавать темы 13-Окт-2017 18:03

[Цитировать]

Информация о фильме
Наименование: После бури
Оригинальное наименование: Umi yori mo mada fukaku
Произведено: Япония
Категория: драма
Режиссер постановщик: Хирокадзу Корээда
В главных ролях: Хироси Абэ, Ёко Маки, Сатоми Кобаяси, Рири Фрэнки, Сосукэ Икэмацу, Юри Накамура, Кадзуя Такахаси, Юкиёси Одзава, Таиё Ёсидзава, Риэ Минэмура
О фильме:
Когда-то Рёта был известным писателем, но судьба сыграла с ним злую шутку — сейчас он незаметный частный сыщик, распутывающий мелкие будничные дела. Он многое потерял: похоронил отца, расстался с женой, забравшей при разводе сына. Но если его пожилая мать и красавица-бывшая как-то справились с этими трагедиями и живут дальше, то Рёта словно застрял в прошлом. Всё немногое, что он зарабатывает сыском, Рёта проигрывает, так что ему нечем даже платить алименты, не говоря уже о том, чтобы быть настоящим отцом для подрастающего сына-школьника. Однако, одна дождливая ночь может в корне изменить всю жизнь.

Файл
Качество: BDRip 720p
Видео данные: MKV, 1280x688 (1.85:1), 23.976 fps, 4000 Кбит/с
Аудио данные: Русский (AC3, 2 ch, 640 Кбит/с)
Перевод: Любительский многоголосый (GreenРай Studio)
Продолжительность: 01:58:10

Mediainfo

General
Unique ID : 228736250016267562883182161609534948855 (0xAC14FFD3EA42B06A9C845279D03745F7)
Complete name : D:Рабочий столAfter.the.Storm.2016.P.BDRip.720p.mkv
Format : Matroska
Format version : Version 4 / Version 2
File size : 3.78 GiB
Duration : 1 h 58 min
Overall bit rate mode : Constant
Overall bit rate : 4 582 kb/s
Movie name : The Shannara Chronicles 2x01 @ AlexFilm
Encoded date : UTC 2017-10-13 13:37:32
Writing application : mkvmerge v8.3.0 ('Over the Horizon') 64bit
Writing library : libebml v1.3.1 + libmatroska v1.4.2
Video
ID : 1
Format : AVC
Format/Info : Advanced Video Codec
Format profile : Main@L3.1
Format settings, CABAC : Yes
Format settings, ReFrames : 3 frames
Format settings, GOP : M=4, N=15
Codec ID : V_MPEG4/ISO/AVC
Duration : 1 h 58 min
Bit rate mode : Constant
Bit rate : 4 000 kb/s
Width : 1 280 pixels
Height : 688 pixels
Display aspect ratio : 1.85:1
Frame rate mode : Constant
Frame rate : 23.976 (23976/1000) FPS
Standard : NTSC
Color space : YUV
Chroma subsampling : 4:2:0
Bit depth : 8 bits
Scan type : Progressive
Bits/(Pixel*Frame) : 0.189
Stream size : 3.25 GiB (86%)
Language : English
Default : Yes
Forced : No
Color range : Limited
Audio
ID : 2
Format : AC-3
Format/Info : Audio Coding 3
Mode extension : CM (complete main)
Format settings, Endianness : Big
Codec ID : A_AC3
Duration : 1 h 58 min
Bit rate mode : Constant
Bit rate : 640 kb/s
Channel(s) : 2 channels
Channel positions : Front: L R
Sampling rate : 48.0 kHz
Frame rate : 31.250 FPS (1536 spf)
Compression mode : Lossy
Stream size : 541 MiB (14%)
Default : Yes
Forced : No
ВНИМАНИЕ! Присутствует реклама!

Скриншоты

Релиз от:
[Профиль] [ЛС]
Кто просматривает тему:

Форум Тема Автор Размер
Pop (Pop) Анастасия Стоцкая - Последний Шаг - 2015, MP3, 320 kbps достали все 103 MB
Rock (Rock)Кино (Виктор Цой) - Последние записи - 1990 (опубликовано 2002), FLAC (image+.cue), lossless sergej644 466 MB
Rock (Рок) Белый проект - Последний день на Земле - 2015, MP3, 320 kbps достали все 54 MB
Фильмы 2016 года 1898. Последние на Филиппинах / 1898. Los últimos de Filipinas (2016) HDRip | L BOSS 2.05 GB
Фильмы (HD DVD, Blu-ray и BDRemux) 2019: После падения Нью-Йорка / 2019 - Dopo la caduta di New York (1983) BDRemux 1080р | L1 BOSS 24.17 GB
Фильмы (HD Rips | 720p, 1080p) 2019: После падения Нью-Йорка / 2019 - Dopo la caduta di New York (1983) BDRip 1080p | L1 Swager 5.92 GB
BBC BBC: Последние царственные воины Европы (1066: Год, чтобы покорить Англию) / Europe's Last Warrior Kings (1066: A Year to Conquer England) [серии 1-3 из 3](Tim Dunn, Robin Dashwood) [2016 ... skorpionN 10.25 GB
Культура и искусство BBC: Саймон Шама о Рембрандте. Шедевры последних лет / Schama on Rembrandt: Masterpieces of the Late Years (Франк Ханли / Frank Hanly) [2014 г., Документальный, искусство, биография, HDTVRip-AVC... skorpionN 1.75 GB
Показать сообщения:    

Текущее время: Сегодня 12:50

Часовой пояс: GMT



Вы не можете начинать темы
Вы не можете отвечать на сообщения
Вы не можете редактировать свои сообщения
Вы не можете удалять свои сообщения
Вы не можете голосовать в опросах
Вы не можете прикреплять файлы к сообщениям
Вы не можете скачивать файлы