Последняя остановка / Don\'t Blink (Трэвис Оутс / Travis Oates) [2014, США, Ужасы, фантастика, детектив, WEB-DLRip] DVO

 
Автор Сообщение

TorrentFilm ®

Пол:

Стаж: 2 года

Сообщений: 7741



Награды: Нет

Торрент-статистика

Создавать темы 22-Янв-2015 00:01

[Цитировать]

Последняя остановка
Страна: США
Жанр: Ужасы, фантастика, детектив
Год выпуска: 2014
Продолжительность: 01:32:17
Перевод: Любительский (двухголосый) [DeadSno & den904] по субтитрам dsa69
Cубтитры: нет
Оригинальная аудиодорожка: нет
Режиссер: Трэвис Оутс / Travis Oates
В ролях: Мена Сувари, Брайан Остин Грин, Джоэнн Келли, Фиона Губелманн, Роберт Пикардо, Зак Уорд, Девид де Латур, Лейф Гантвурт, Эмели О Хара, Кертисс Фрисл
Описание: Десять туристов прибывают на расположенную высоко в горах лыжную базу, но обнаруживают её совершенно покинутой. Поскольку у них не осталось топлива на обратный путь, героям приходится остаться здесь и попытаться выяснить, куда же подевались все сотрудники и посетители курорта. Со временем они понимают, что то, с чем они здесь столкнулись, едва ли можно объяснить рационально...-Сэмпл / Кинопоиск / ImDB .-Качество видео: WEB-DLRip
Формат видео: AVI
Видео: 640x272 (2.35:1), 23.976 fps, XviD MPEG-4 ~919 kbps avg, 0.22 bit/pixel
Аудио: 48 kHz, MPEG Layer 3, 2 ch, ~128.00 kbps avg- -

MediaInfo

Format : AVI
Format/Info : Audio Video Interleave
File size : 698 MiB
Duration : 1h 32mn
Overall bit rate : 1 057 Kbps
Writing application : VirtualDubModRus 1.5.10.2 (build 2542/release)
Writing library : VirtualDubMod build 2542/release
Video
ID : 0
Format : MPEG-4 Visual
Format profile : Advanced Simple@L5
Format settings, BVOP : 2
Format settings, QPel : No
Format settings, GMC : No warppoints
Format settings, Matrix : Default (H.263)
Muxing mode : Packed bitstream
Codec ID : XVID
Codec ID/Hint : XviD
Duration : 1h 32mn
Bit rate : 920 Kbps
Width : 640 pixels
Height : 272 pixels
Display aspect ratio : 2.35:1
Frame rate : 23.976 fps
Color space : YUV
Chroma subsampling : 4:2:0
Bit depth : 8 bits
Scan type : Progressive
Compression mode : Lossy
Bits/(Pixel*Frame) : 0.220
Stream size : 607 MiB (87%)
Writing library : XviD 65
Audio
ID : 1
Format : MPEG Audio
Format version : Version 1
Format profile : Layer 3
Codec ID : 55
Codec ID/Hint : MP3
Duration : 1h 32mn
Bit rate mode : Constant
Bit rate : 128 Kbps
Channel(s) : 2 channels
Sampling rate : 48.0 KHz
Compression mode : Lossy
Stream size : 84.5 MiB (12%)
Alignment : Aligned on interleaves
Interleave, duration : 42 ms (1.00 video frame)
Interleave, preload duration : 504 ms
Writing library : LAME3.99r
Encoding settings : -m s -V 4 -q 2 -lowpass 17 -b 128

Скриншот c названием фильма

Скриншоты

[Профиль] [ЛС]
Показать сообщения:    

Текущее время: Сегодня 12:26

Часовой пояс: GMT



Вы не можете начинать темы
Вы не можете отвечать на сообщения
Вы не можете редактировать свои сообщения
Вы не можете удалять свои сообщения
Вы не можете голосовать в опросах
Вы не можете прикреплять файлы к сообщениям
Вы не можете скачивать файлы