Последняя жертва (Фуад Шабанов) [2012, мелодрама, HDTV 1080i]

 
Автор Сообщение

painkiller ®

Стаж: 2 года 3 месяца

Сообщений: 582



Награды: Нет

Торрент-статистика

Создавать темы 14-Авг-2014 13:07

[Цитировать]

Последняя жертва
Жанр: мелодрама
Год выпуска: 2012
Продолжительность: 01:30:00
Режиссёр: Фуад Шабанов
В ролях: Александра Самохина, Дмитрий Исаев, Марина Яковлева, Геннадий Смирнов, Анна Марущенко, Инна Ярмошук (Корнышева), Владимир Черных, Вадим Бурлаков
Описание: Главная героиня картины Юля недавно потеряла любимого мужа и тяжело переживает эту утрату. Со временем в ее жизни появляется новый мужчина, но это не приносит ей счастья: вместе с ним появляются недоверие, печаль, а затем и настоящее предательство. Руку помощи в трудную минут Юле протянет друг, который всегда был рядом...
Доп. информация: Файл чистый. Без посторонних надписей. Выкладывается, как есть.
Релиз -
Семпл: http://multi-up.com/829670
Качество видео: HDTV 1080i
Формат видео: MPEG-TS
Видео: AVC, 1920x1080 (16:9), 25 fps, 7836 Kbps, 0.151 bit/pixel
Аудио: MPEG Audio, 48 kHz, stereo, 192 Kbps

MI

ID : 1 (0x1)
Complete name : Последняя жертва (2012, Мелодрама, HDTV) (MYDIMKA).ts
Format : MPEG-TS
File size : 5.32 GiB
Duration : 1h 29mn
Overall bit rate mode : Variable
Overall bit rate : 8 476 Kbps
Video
ID : 2911 (0xB5F)
Menu ID : 1 (0x1)
Format : AVC
Format/Info : Advanced Video Codec
Format profile : High@L4.0
Format settings, CABAC : Yes
Format settings, ReFrames : 4 frames
Format settings, GOP : M=4, N=32
Codec ID : 27
Duration : 1h 29mn
Bit rate : 7 863 Kbps
Width : 1 920 pixels
Height : 1 080 pixels
Display aspect ratio : 16:9
Frame rate : 25.000 fps
Color space : YUV
Chroma subsampling : 4:2:0
Bit depth : 8 bits
Scan type : MBAFF
Bits/(Pixel*Frame) : 0.152
Stream size : 4.93 GiB (93%)
Audio
ID : 2912 (0xB60)
Menu ID : 1 (0x1)
Format : MPEG Audio
Format version : Version 1
Format profile : Layer 2
Codec ID : 3
Duration : 1h 29mn
Bit rate mode : Constant
Bit rate : 192 Kbps
Channel(s) : 2 channels
Sampling rate : 48.0 KHz
Compression mode : Lossy
Delay relative to video : -40ms
Stream size : 123 MiB (2%)
Language : Russian

Скриншот с названием фильма

Скриншоты


[Профиль] [ЛС]
Показать сообщения:    

Текущее время: Сегодня 11:55

Часовой пояс: GMT



Вы не можете начинать темы
Вы не можете отвечать на сообщения
Вы не можете редактировать свои сообщения
Вы не можете удалять свои сообщения
Вы не можете голосовать в опросах
Вы не можете прикреплять файлы к сообщениям
Вы не можете скачивать файлы