Последний шанс Харви / Last Chance Harvey (2008) BDRip | А

 
Автор Сообщение

Russian Mafia ®

Пол:

Стаж: 2 года 4 месяца

Сообщений: 4249



Награды: 10 (Подробнее)

Top Releaser 5 (Количество: 1) Mega Seeder 4 (Количество: 1) Mega Seeder 1 (Количество: 1)
Торрент-статистика

Создавать темы 29-Июл-2016 14:53

[Цитировать]

Последний шанс Харви / Last Chance Harvey
Страна: США
Производство: Overture Films, Process Media
Год выпуска: 2008
Жанр: драма, мелодрама
Продолжительность: 01:32:39
Режиссер: Джоэл Хопкинс
Автор сценария: Джоэл Хопкинс
В ролях: Дастин Хоффман, Эмма Томпсон, Айлин Эткинс, Кэти Бейкер, Лиэн Балабан, Джеймс Бролин, Ричард Шифф, Дэниэл Лапэйн, Брона Галлахер
Описание: Харви одинок и уже немолод. Он живёт в Нью-Йорке, зарабатывая на жизнь сочинением рекламных джинглов. Но однажды его размеренной и скучной жизни приходит конец. Прилетев в Лондон на свадьбу своей дочери, Харви неожиданно узнаёт, что на торжественной церемонии в качестве отца невесты выступит не он, а ее отчим. Расстроенный и обиженный Харви опаздывает на свой самолёт в Нью-Йорк. В баре аэропорта он встречает обаятельную женщину по имени Кейт, с которой его связывает очень многое — несмотря на то, что они даже не знакомы. Это последний шанс Харви…

Перевод: Авторский (одноголосый, закадровый) | Юрий Сербин
Субтитры: нет-Качество: BDRip
Формат: AVI
Видео кодек: XviD
Аудио кодек: АС3
Видео: 720x304 (2.35:1), 23.976 fps, XviD build 64 ~1 786 kbps avg
Аудио: 48.0 kHz, AC3 Dolby Digital, 3/2 (L,C,R,l,r) + LFE ch, ~448 kbps
Дата премьеры (мир): 8 ноября 2008
релиз на DVD: 17 декабря 2009, «Союз-Видео»
релиз на Blu-Ray: 22 декабря 2009, «Союз-Видео»

Media Info

Полное имя : Последний шанс Харви.avi
Формат : AVI
Формат/Информация : Audio Video Interleave
Размер файла : 1,45 Гбайт
Продолжительность : 1 ч. 32 м.
Общий поток : 2243 Кбит/сек
Программа кодирования : VirtualDubMod 1.5.10.3 | (build 2550/release)
Видео
Идентификатор : 0
Формат : MPEG-4 Visual
Профиль формата : Advanced Simple@L5
Параметр BVOP формата : 1
Параметр QPel формата : Нет
Параметр GMC формата : Без точки перехода
Параметр матрицы формата : Выборочная
Идентификатор кодека : XVID
Идентификатор кодека/Подсказка : XviD
Продолжительность : 1 ч. 32 м.
Битрейт : 1786 Кбит/сек
Ширина : 720 пикселей
Высота : 304 пикселя
Соотношение сторон : 2,35:1
Частота кадров : 23,976 кадра/сек
Цветовое пространство : YUV
Субдискретизация насыщенности : 4:2:0
Битовая глубина : 8 бит
Тип развёртки : Прогрессивная
Метод сжатия : С потерями
Бит/(Пиксели*Кадры) : 0.340
Размер потока : 1,16 Гбайт (80%)
Библиотека кодирования : XviD 64
Аудио
Идентификатор : 1
Формат : AC-3
Формат/Информация : Audio Coding 3
Расширение режима : CM (complete main)
Параметр Endianness формата : Big
Идентификатор кодека : 2000
Продолжительность : 1 ч. 32 м.
Вид битрейта : Постоянный
Битрейт : 448 Кбит/сек
Каналы : 6 каналов
Расположение каналов : Front: L C R, Side: L R, LFE
Частота : 48,0 КГц
Метод сжатия : С потерями
Размер потока : 297 Мбайт (20%)
Выравнивание : Разделение по промежуткам
Продолжительность промежутка : 42 мс. (1,00 видеокадр)
Время предзагрузки промежутка : 500 мс.

Скриншоты

[Профиль] [ЛС]
Кто просматривает тему:

Форум Тема Автор Размер
Pop (Pop) Анастасия Стоцкая - Последний Шаг - 2015, MP3, 320 kbps достали все 103 MB
Rock (Rock)Кино (Виктор Цой) - Последние записи - 1990 (опубликовано 2002), FLAC (image+.cue), lossless sergej644 466 MB
Rock (Рок) Белый проект - Последний день на Земле - 2015, MP3, 320 kbps достали все 54 MB
Фильмы 2016 года 1898. Последние на Филиппинах / 1898. Los últimos de Filipinas (2016) HDRip | L BOSS 2.05 GB
BBC BBC: Последние царственные воины Европы (1066: Год, чтобы покорить Англию) / Europe's Last Warrior Kings (1066: A Year to Conquer England) [серии 1-3 из 3](Tim Dunn, Robin Dashwood) [2016 ... skorpionN 10.25 GB
Культура и искусство BBC: Саймон Шама о Рембрандте. Шедевры последних лет / Schama on Rembrandt: Masterpieces of the Late Years (Франк Ханли / Frank Hanly) [2014 г., Документальный, искусство, биография, HDTVRip-AVC... skorpionN 1.75 GB
BBC BBC: Скрытые убийцы в домах послевоенного времени / Hidden Killers of The Post War Home (Suzanne Phillips) [2015 г., Документальный, история, HDTVRip 720p] skorpionN 1.8 GB
BBC BBC: Экспедиция "Тигр" (В поисках последнего тигра) / Lost Land of the Tiger [серии 1-3 из 3] (Annie Backhouse, Susanna Handslip, Rowan Musgrave) [2010 г., Документальный, природа, флор... skorpionN 4.76 GB
Показать сообщения:    

Текущее время: Сегодня 01:45

Часовой пояс: GMT



Вы не можете начинать темы
Вы не можете отвечать на сообщения
Вы не можете редактировать свои сообщения
Вы не можете удалять свои сообщения
Вы не можете голосовать в опросах
Вы не можете прикреплять файлы к сообщениям
Вы не можете скачивать файлы