Последний шанс Харви / Last Chance Harvey (2008) BDRip | А

 
Автор Сообщение

Russian Mafia ®

Пол:

Стаж: 1 год 8 месяцев

Сообщений: 4256



Награды: 10 (Подробнее)

Top Releaser 2 (Количество: 1) За внесенный вклад в развитие сайта (Количество: 1) Mega Seeder 3 (Количество: 1)
Торрент-статистика

Создавать темы 29-Июл-2016 14:53

[Цитировать]

Последний шанс Харви / Last Chance Harvey
Страна: США
Производство: Overture Films, Process Media
Год выпуска: 2008
Жанр: драма, мелодрама
Продолжительность: 01:32:39
Режиссер: Джоэл Хопкинс
Автор сценария: Джоэл Хопкинс
В ролях: Дастин Хоффман, Эмма Томпсон, Айлин Эткинс, Кэти Бейкер, Лиэн Балабан, Джеймс Бролин, Ричард Шифф, Дэниэл Лапэйн, Брона Галлахер
Описание: Харви одинок и уже немолод. Он живёт в Нью-Йорке, зарабатывая на жизнь сочинением рекламных джинглов. Но однажды его размеренной и скучной жизни приходит конец. Прилетев в Лондон на свадьбу своей дочери, Харви неожиданно узнаёт, что на торжественной церемонии в качестве отца невесты выступит не он, а ее отчим. Расстроенный и обиженный Харви опаздывает на свой самолёт в Нью-Йорк. В баре аэропорта он встречает обаятельную женщину по имени Кейт, с которой его связывает очень многое — несмотря на то, что они даже не знакомы. Это последний шанс Харви…

Перевод: Авторский (одноголосый, закадровый) | Юрий Сербин
Субтитры: нет-Качество: BDRip
Формат: AVI
Видео кодек: XviD
Аудио кодек: АС3
Видео: 720x304 (2.35:1), 23.976 fps, XviD build 64 ~1 786 kbps avg
Аудио: 48.0 kHz, AC3 Dolby Digital, 3/2 (L,C,R,l,r) + LFE ch, ~448 kbps
Дата премьеры (мир): 8 ноября 2008
релиз на DVD: 17 декабря 2009, «Союз-Видео»
релиз на Blu-Ray: 22 декабря 2009, «Союз-Видео»

Media Info

Полное имя : Последний шанс Харви.avi
Формат : AVI
Формат/Информация : Audio Video Interleave
Размер файла : 1,45 Гбайт
Продолжительность : 1 ч. 32 м.
Общий поток : 2243 Кбит/сек
Программа кодирования : VirtualDubMod 1.5.10.3 | (build 2550/release)
Видео
Идентификатор : 0
Формат : MPEG-4 Visual
Профиль формата : Advanced Simple@L5
Параметр BVOP формата : 1
Параметр QPel формата : Нет
Параметр GMC формата : Без точки перехода
Параметр матрицы формата : Выборочная
Идентификатор кодека : XVID
Идентификатор кодека/Подсказка : XviD
Продолжительность : 1 ч. 32 м.
Битрейт : 1786 Кбит/сек
Ширина : 720 пикселей
Высота : 304 пикселя
Соотношение сторон : 2,35:1
Частота кадров : 23,976 кадра/сек
Цветовое пространство : YUV
Субдискретизация насыщенности : 4:2:0
Битовая глубина : 8 бит
Тип развёртки : Прогрессивная
Метод сжатия : С потерями
Бит/(Пиксели*Кадры) : 0.340
Размер потока : 1,16 Гбайт (80%)
Библиотека кодирования : XviD 64
Аудио
Идентификатор : 1
Формат : AC-3
Формат/Информация : Audio Coding 3
Расширение режима : CM (complete main)
Параметр Endianness формата : Big
Идентификатор кодека : 2000
Продолжительность : 1 ч. 32 м.
Вид битрейта : Постоянный
Битрейт : 448 Кбит/сек
Каналы : 6 каналов
Расположение каналов : Front: L C R, Side: L R, LFE
Частота : 48,0 КГц
Метод сжатия : С потерями
Размер потока : 297 Мбайт (20%)
Выравнивание : Разделение по промежуткам
Продолжительность промежутка : 42 мс. (1,00 видеокадр)
Время предзагрузки промежутка : 500 мс.

Скриншоты

[Профиль] [ЛС]
Показать сообщения:    

Текущее время: Сегодня 20:35

Часовой пояс: GMT



Вы не можете начинать темы
Вы не можете отвечать на сообщения
Вы не можете редактировать свои сообщения
Вы не можете удалять свои сообщения
Вы не можете голосовать в опросах
Вы не можете прикреплять файлы к сообщениям
Вы не можете скачивать файлы