Последний уик-энд (Павел Санаев) [2005, Россия, Молодёжный триллер, DVD5]

 
Автор Сообщение

TorrentFilm ®

Пол:

Стаж: 2 года

Сообщений: 7741



Награды: Нет

Торрент-статистика

Создавать темы 02-Янв-2016 00:01

[Цитировать]

Последний уик-энд
Страна: Россия
Студия: Киностудия "Глобус"
Жанр: Молодёжный триллер
Год выпуска: 2005
Продолжительность: 1:26:36
Режиссер: Павел Санаев
В ролях: Татьяна Арнтгольц, Иван Стебунов, Артем Семакин, Илья Соколовский, Ритис Скрипка, Гоша Куценко
Описание: Владалец охранной фирмы, в прошлом криминальный авторитет го кличке Бешеный, решил отправить своего любимого младшего брата Мишу на учебу в Америку, а чтобы брат не скучал в далекой стране, готов даже отправить вместе с ним его лучшего друга Кирилла. Пацаны устраивают прощальную вечеринку для друзей, на которой Мишка в результате несчастного случая гибнет. Оказавшись в одной компании с трупом, испугавшись суровой расправы Бешеного, друзья принимают решение избавиться от тела. Рецепт предлагает бывший десантник Глеб - труп надо обложить покрышками и сжечь далеко за городом. И вот тело друга уложено в багажник вместе со старыми шинами, и Кирилл садится за руль старого Кадиллака, чтобы тронуться в путь. Если бы он знал, что его малодушие запустило в действие рок - беспощадный механизм, готовый уничтожить их всех. Это бып их последний уик-энд...
Доп. информация: В отличие от данной раздачи здесь аудиодорога 6-ти канальная
Бонусы: Дополнительная информация: на диске присутствуют бонусы "Смотрите на DVD":
- Итальянец
- Библиотекарь
- Винчи или Ва-банк 3
Меню: Есть статичное, язык русский
Тип релиза: DVD5
Контейнер: DVD-Video
Сэмпл: http://multi-up.com/798789
Видео: PAL 4:3 (720x576) VBR
Аудио: Русский (Dolby AC3, 6 ch, 384 kbps)

PowerDVD

MediaInfo

General
Complete name : H:\Poslednij.uik.jend.2005.DVD-5\VIDEO_TS\VTS_02_1.VOB
Format : MPEG-PS
File size : 1 024 MiB
Duration : 21mn 55s
Overall bit rate mode : Variable
Overall bit rate : 6 532 Kbps
Video
ID : 224 (0xE0)
Format : MPEG Video
Format version : Version 2
Format profile : Main@Main
Format settings, BVOP : Yes
Format settings, Matrix : Custom
Format settings, GOP : M=3, N=12
Duration : 21mn 55s
Bit rate mode : Variable
Bit rate : 6 018 Kbps
Maximum bit rate : 8 500 Kbps
Width : 720 pixels
Height : 576 pixels
Display aspect ratio : 4:3
Frame rate : 25.000 fps
Standard : PAL
Color space : YUV
Chroma subsampling : 4:2:0
Bit depth : 8 bits
Scan type : Interlaced
Scan order : Top Field First
Compression mode : Lossy
Bits/(Pixel*Frame) : 0.580
Stream size : 943 MiB (92%)
Audio
ID : 189 (0xBD)-128 (0x80)
Format : AC-3
Format/Info : Audio Coding 3
Mode extension : CM (complete main)
Format settings, Endianness : Big
Muxing mode : DVD-Video
Duration : 21mn 54s
Bit rate mode : Constant
Bit rate : 384 Kbps
Channel(s) : 6 channels
Channel positions : Front: L C R, Side: L R, LFE
Sampling rate : 48.0 KHz
Bit depth : 16 bits
Compression mode : Lossy
Delay relative to video : -80ms
Stream size : 60.2 MiB (6%)
Menu

Скриншоты меню

Скриншоты

Скриншоты доп. материалов

[Профиль] [ЛС]
Показать сообщения:    

Текущее время: Сегодня 09:05

Часовой пояс: GMT



Вы не можете начинать темы
Вы не можете отвечать на сообщения
Вы не можете редактировать свои сообщения
Вы не можете удалять свои сообщения
Вы не можете голосовать в опросах
Вы не можете прикреплять файлы к сообщениям
Вы не можете скачивать файлы