Последний табор (1935) DVDRip от New-Team

 
Автор Сообщение

sergej644 ®

Пол:

Стаж: 5 лет 9 месяцев

Сообщений: 6149

Откуда: Soviet Union



Награды: 9 (Подробнее)

Mega Seeder 3 (Количество: 1) Top Seeder 4 (Количество: 1) Mega Seeder 2 (Количество: 1)
Торрент-статистика

Создавать темы 18-Ноя-2014 13:26

[Цитировать]

Страна: СССР
Производство: Межрабпомфильм
Жанр: драма
Год выпуска: 1935
Продолжительность: 01:21:42
Перевод: не требуется
Оригинальная аудиодорожка: русский
Cубтитры: нет
Режиссер: Моисей Голдблат, Евгений Шнейдер
В ролях:
Александр Гранах, Николай Мордвинов, М.Синельникова, Ляля Черная, Михаил Яншин, Петр Савин, Федор Блажевич, Евгения Рогулина...
Описание:
Старый вожак Данило крепко держит в руках цыганский табор. Но у него есть серьезный соперник — Иван Лихо, который ведет терпеливую борьбу за привлечение цыган к оседлой жизни. Он приглашает Данило с табором погостить в колхозе. Председатель обращается к цыганам за помощью в уборочную пору и просит лошадей. Данило приводит самую захудалую лошаденку из своего богатого табуна, чем вызывает недовольство заинтересованных в помощи колхозу цыган. В таборе назревает раскол…- -Исходник: DVD5 R5
Тип релиза: DVDRip
Контейнер: AVI
Видео: 656x496 (4:3), 25 fps, XviD ~ 1135 kbps avg, 0.140 bit/pixel
Аудио: 48 kHz, MP3 2.0, 128 kbps
Раздача от:

MediaInfo

Общее
Полное имя : Posledniy.tabor.1935.DVDRip-745_[New-team]_by_AVP_Studio.avi
Формат : AVI
Формат/Информация : Audio Video Interleave
Размер файла : 744 Мбайт
Продолжительность : 1 ч. 21 м.
Общий поток : 1273 Кбит/сек
Программа кодирования : VirtualDubModRus 1.5.10.2 (build 2542/release)
Библиотека кодирования : VirtualDubMod build 2542/release
Видео
Идентификатор : 0
Формат : MPEG-4 Visual
Профиль формата : Advanced Simple@L5
Параметр BVOP формата : 1
Параметр QPel формата : Нет
Параметр GMC формата : Без точки перехода
Параметр матрицы формата : Выборочная
Идентификатор кодека : XVID
Идентификатор кодека/Подсказка : XviD
Продолжительность : 1 ч. 21 м.
Битрейт : 1135 Кбит/сек
Ширина : 656 пикселей
Высота : 496 пикселей
Соотношение сторон : 4:3
Частота кадров : 25,000 кадров/сек
Цветовое пространство : YUV
Субдискретизация насыщенности : 4:2:0
Битовая глубина : 8 бит
Тип развёртки : Прогрессивная
Метод сжатия : С потерями
Бит/(Пиксели*Кадры) : 0.140
Размер потока : 663 Мбайт (89%)
Библиотека кодирования : XviD 73
Аудио
Идентификатор : 1
Формат : MPEG Audio
Версия формата : Version 1
Профиль формата : Layer 3
Идентификатор кодека : 55
Идентификатор кодека/Подсказка : MP3
Продолжительность : 1 ч. 21 м.
Вид битрейта : Постоянный
Битрейт : 128 Кбит/сек
Каналы : 2 канала
Частота : 48,0 КГц
Метод сжатия : С потерями
Размер потока : 74,8 Мбайт (10%)
Выравнивание : Соединение по промежуткам
Продолжительность промежутка : 40 мс. (1,00 видеокадр)
Время предзагрузки промежутка : 504 мс.
Библиотека кодирования : LAME3.99r
Настройки программы : -m s -V 4 -q 2 -lowpass 17 -b 128

Скриншоты

[Профиль] [ЛС]
Кто просматривает тему:

Форум Тема Автор Размер
Pop (Pop) Анастасия Стоцкая - Последний Шаг - 2015, MP3, 320 kbps достали все 103 MB
Rock (Rock)Кино (Виктор Цой) - Последние записи - 1990 (опубликовано 2002), FLAC (image+.cue), lossless sergej644 466 MB
Rock (Рок) Белый проект - Последний день на Земле - 2015, MP3, 320 kbps достали все 54 MB
Фильмы 2016 года 1898. Последние на Филиппинах / 1898. Los últimos de Filipinas (2016) HDRip | L BOSS 2.05 GB
Фильмы (HD DVD, Blu-ray и BDRemux) 2019: После падения Нью-Йорка / 2019 - Dopo la caduta di New York (1983) BDRemux 1080р | L1 BOSS 24.17 GB
Фильмы (HD Rips | 720p, 1080p) 2019: После падения Нью-Йорка / 2019 - Dopo la caduta di New York (1983) BDRip 1080p | L1 Swager 5.92 GB
BBC BBC: Последние царственные воины Европы (1066: Год, чтобы покорить Англию) / Europe's Last Warrior Kings (1066: A Year to Conquer England) [серии 1-3 из 3](Tim Dunn, Robin Dashwood) [2016 ... skorpionN 10.25 GB
Культура и искусство BBC: Саймон Шама о Рембрандте. Шедевры последних лет / Schama on Rembrandt: Masterpieces of the Late Years (Франк Ханли / Frank Hanly) [2014 г., Документальный, искусство, биография, HDTVRip-AVC... skorpionN 1.75 GB
Показать сообщения:    

Текущее время: Сегодня 19:27

Часовой пояс: GMT



Вы не можете начинать темы
Вы не можете отвечать на сообщения
Вы не можете редактировать свои сообщения
Вы не можете удалять свои сообщения
Вы не можете голосовать в опросах
Вы не можете прикреплять файлы к сообщениям
Вы не можете скачивать файлы