Последний самурай / The Last Samurai (2003) BDRip 1080p

 
Автор Сообщение

Russian Mafia ®

Пол:

Стаж: 1 год 8 месяцев

Сообщений: 4260



Награды: 10 (Подробнее)

Mega Seeder 4 (Количество: 1) За внесенный вклад в развитие сайта (Количество: 1) Mega Seeder 2 (Количество: 1)
Торрент-статистика

Создавать темы 30-Авг-2016 15:18

[Цитировать]

Информация о фильме
Название: Последний самурай
Оригинальное название: The Last Samurai
Год выхода: 2003
Жанр: боевик, драма, приключения, военный, история
Режиссер: Эдвард Цвик
В ролях: Кен Ватанабе, Том Круз, Коюки, Уильям Этертон, Тони Голдуин, Билли Коннолли, Чэд Линдберг, Тимоти Сполл, Шичиносуке Накамура, Хироюки Санада
О фильме: Действие разворачивается в Японии 70-ых годов девятнадцатого века. Капитан Нейтон Альгрен, уважаемый американский военный офицер, нанят Императором Японии для обучения первой армии Страны Восходящего Солнца современному искусству ведения боевых действий.
Император пытается искоренить древних воинов-самураев, готовясь к более прозападной политике правительства…

Выпущено: Warner Bros. Pictures
Продолжительность: 02:34:11
Перевод: Дублированный (лицензия)
Файл
Кодек: x264
Качество: BDRip (источник: Blu-ray Disc)
Видео: 1920x792 (2,40:1), 23.976 fps, 5930 kbps
Аудио #1: AC-3, 6 ch, 640 kbps (Rus)
Аудио #2: AC-3, 6 ch, 640 kbps (Eng)
Субтитры: Русские (форс,полные), Английские
Скачать: сэмпл
Скриншоты

MI

Общее
Уникальный идентификатор : 170522098501992235349216731144768440189 (0x80495C8FC061A8FC9620FA14E7E3C77D)
Полное имя : The.Last.Samurai.2003.BDRip.1080p.Rus.Eng.mkv
Формат : Matroska
Версия формата : Version 2
Размер файла : 7,77 Гбайт
Продолжительность : 2 ч. 34 м.
Общий поток : 7211 Кбит/сек
Название фильма : Последний самурай / The Last Samurai (2003)
Дата кодирования : UTC 2012-06-14 12:34:03
Программа кодирования : mkvmerge v5.5.0 ('Healer') built on Apr 6 2012 21:43:24
Библиотека кодирования : libebml v1.2.3 + libmatroska v1.3.0
Видео
Идентификатор : 1
Формат : AVC
Формат/Информация : Advanced Video Codec
Профиль формата : High@L4.1
Параметр CABAC формата : Да
Параметр ReFrames формата : 5 кадров
Идентификатор кодека : V_MPEG4/ISO/AVC
Продолжительность : 2 ч. 34 м.
Битрейт : 5930 Кбит/сек
Ширина : 1920 пикселей
Высота : 792 пикселя
Соотношение сторон : 2,40:1
Частота кадров : 23,976 кадра/сек
Цветовое пространство : YUV
Субдискретизация насыщенности : 4:2:0
Битовая глубина : 8 бит
Тип развёртки : Прогрессивная
Бит/(Пиксели*Кадры) : 0.163
Размер потока : 6,23 Гбайт (80%)
Заголовок : Release by AlexKa
Библиотека кодирования : x264 core 125 r2200 999b753
Настройки программы : cabac=1 / ref=5 / deblock=1:0:0 / analyse=0x3:0x133 / me=umh / subme=10 / psy=1 / psy_rd=1.10:0.10 / mixed_ref=1 / me_range=32 / chroma_me=1 / trellis=2 / 8x8dct=1 / cqm=0 / deadzone=21,11 / fast_pskip=0 / chroma_qp_offset=-3 / threads=12 / lookahead_threads=2 / sliced_threads=0 / nr=0 / decimate=0 / interlaced=0 / bluray_compat=0 / constrained_intra=0 / bframes=5 / b_pyramid=2 / b_adapt=2 / b_bias=0 / direct=3 / weightb=1 / open_gop=0 / weightp=2 / keyint=240 / keyint_min=23 / scenecut=40 / intra_refresh=0 / rc_lookahead=60 / rc=2pass / mbtree=1 / bitrate=5930 / ratetol=1.0 / qcomp=0.60 / qpmin=0 / qpmax=69 / qpstep=4 / cplxblur=20.0 / qblur=0.5 / ip_ratio=1.40 / aq=1:1.00
Язык : English
Аудио #1
Идентификатор : 2
Формат : AC-3
Формат/Информация : Audio Coding 3
Расширение режима : CM (complete main)
Идентификатор кодека : A_AC3
Продолжительность : 2 ч. 34 м.
Вид битрейта : Постоянный
Битрейт : 640 Кбит/сек
Каналы : 6 каналов
Расположение каналов : Front: L C R, Side: L R, LFE
Частота : 48,0 КГц
Битовая глубина : 16 бит
Метод сжатия : С потерями
Размер потока : 706 Мбайт (9%)
Заголовок : Rus
Язык : Russian
Аудио #2
Идентификатор : 3
Формат : AC-3
Формат/Информация : Audio Coding 3
Расширение режима : CM (complete main)
Идентификатор кодека : A_AC3
Продолжительность : 2 ч. 34 м.
Вид битрейта : Постоянный
Битрейт : 640 Кбит/сек
Каналы : 6 каналов
Расположение каналов : Front: L C R, Side: L R, LFE
Частота : 48,0 КГц
Битовая глубина : 16 бит
Метод сжатия : С потерями
Размер потока : 706 Мбайт (9%)
Заголовок : Eng
Язык : English
Текст #1
Идентификатор : 4
Формат : UTF-8
Идентификатор кодека : S_TEXT/UTF8
Идентификатор кодека/Информация : UTF-8 Plain Text
Заголовок : Rus forced
Язык : Russian
Текст #2
Идентификатор : 5
Формат : UTF-8
Идентификатор кодека : S_TEXT/UTF8
Идентификатор кодека/Информация : UTF-8 Plain Text
Заголовок : Rus
Язык : Russian
Текст #3
Идентификатор : 6
Формат : UTF-8
Идентификатор кодека : S_TEXT/UTF8
Идентификатор кодека/Информация : UTF-8 Plain Text
Заголовок : Eng
Язык : English
Меню
00:00:00.000 : :Chapter 01
00:01:52.070 : :Chapter 02
00:05:38.629 : :Chapter 03
00:09:58.389 : :Chapter 04
00:13:13.584 : :Chapter 05
00:15:24.882 : :Chapter 06
00:20:06.496 : :Chapter 07
00:22:54.831 : :Chapter 08
00:25:39.496 : :Chapter 09
00:31:12.996 : :Chapter 10
00:37:00.676 : :Chapter 11
00:41:00.916 : :Chapter 12
00:44:11.440 : :Chapter 13
00:49:36.098 : :Chapter 14
00:52:41.116 : :Chapter 15
00:56:48.363 : :Chapter 16
01:00:04.559 : :Chapter 17
01:03:25.259 : :Chapter 18
01:06:58.973 : :Chapter 19
01:11:43.257 : :Chapter 20
01:14:40.601 : :Chapter 21
01:18:55.689 : :Chapter 22
01:21:22.002 : :Chapter 23
01:24:21.014 : :Chapter 24
01:26:39.819 : :Chapter 25
01:30:28.381 : :Chapter 26
01:34:01.761 : :Chapter 27
01:37:16.455 : :Chapter 28
01:41:46.391 : :Chapter 29
01:44:55.914 : :Chapter 30
01:48:06.605 : :Chapter 31
01:52:26.364 : :Chapter 32
01:55:24.375 : :Chapter 33
02:00:03.654 : :Chapter 34
02:06:24.535 : :Chapter 35
02:08:21.485 : :Chapter 36
02:10:46.797 : :Chapter 37
02:13:06.603 : :Chapter 38
02:16:37.314 : :Chapter 39
02:22:57.527 : :Chapter 40
02:24:31.287 : :Chapter 41

x264

x264 [info]: frame I:2362 Avg QP:17.88 size:139450
x264 [info]: frame P:51168 Avg QP:21.05 size: 55377
x264 [info]: frame B:168277 Avg QP:22.75 size: 21944
[Профиль] [ЛС]
Показать сообщения:    

Текущее время: Сегодня 14:08

Часовой пояс: GMT



Вы не можете начинать темы
Вы не можете отвечать на сообщения
Вы не можете редактировать свои сообщения
Вы не можете удалять свои сообщения
Вы не можете голосовать в опросах
Вы не можете прикреплять файлы к сообщениям
Вы не можете скачивать файлы