Последний покровитель / Последний крёстный отец / L\'ultimo padrino / The Last Godfather (Марко Ризи / Marco Risi) [2008, Италия, DVDRip] VO (Project Web Money) + Sub Rus (ladySpais) + Original Ita

 
Автор Сообщение

TorrentFilm ®

Пол:

Стаж: 2 года

Сообщений: 7741



Награды: Нет

Торрент-статистика

Создавать темы 09-Янв-2016 00:12

[Цитировать]

Последний покровитель / Последний крёстный отец
L'ultimo padrino / The Last Godfather
Страна: Италия
Студия: Taodue Film
Жанр: драма, криминал, биография, история
Год выпуска: 2008
Продолжительность: 01:32:21 + 01:32:52
Перевод: Одноголосый закадровый - Project_Web_Money (по переводу ladySpais)
Cубтитры: русские(ladySpais)
Оригинальная аудиодорожка: итальянский
Режиссер: Марко Ризи / Marco Risi
В ролях: Микеле Плачидо, Даниэле Печчи, Микаела Рамаццотти, Марко Леонарди, Раффаэле Ванноли, Гаэтано Амато, Антонино Брускетта, Гвидо Каприно, Джачинто Ферро, Нино Фрассика ...
Описание: В фильме, основанном на реальных событиях, рассказана история последних лет, предшествующих аресту в 2006 году, Бернардо Провенцано (Bernardo Provenzano), последнего известного «крёстного отца» сицилийской «Коза Ностры» (приемника Тото Риины), скрывавшегося от правосудия в течение 40 лет, и группы полицейских (Gruppo DUOMO), которым было поручено найти и арестовать его.
Доп. информация: Рип сделан из этого 2xDVD5-- --L'ultimo padrino (2008)_DVDRip_Sample_.avi
Качество видео: DVDRip
Формат видео: AVI
Видео: 704x384 (1.83:1), 25 fps, XviD build 50 ~1872 kbps avg, 0.28 bit/pixel
Аудио 1: 48 kHz, AC3 Dolby Digital, 2/0 (L,R) ch, ~192 kbps, Русский
Аудио 2: 48 kHz, AC3 Dolby Digital, 2/0 (L,R) ch, ~192 kbps, Итальянский
Формат субтитров: softsub (SRT)

AviInfo

File: L'ultimo padrino (2008)_DVDRip_Part - 1_.avi
Title: L'ultimo padrino (2008)
Author: Marco Risi
Copyleft: Ripped_by_rjhlb777
Genre: Biography, Crime, Drama
Category: Movie
Comment: VO (Project_Web_Money) + Original ITA
FileSize: 1501.08 Mb ( 1 574 000 640 bytes )
Play length: 01:32:21.479 (138537 frames)
Subtitles: RUS_(ladySpais)_ (SubRip format)
Video: 704x384 (1.83:1), 25 fps, XviD build 50 ~1872 kbps avg, 0.28 bit/pixel
Audio #1: 48 kHz, AC3 Dolby Digital, 2/0 (L,R) ch, ~192 kbps
Audio #2: 48 kHz, AC3 Dolby Digital, 2/0 (L,R) ch, ~192 kbps
======================================================
======================================================
File: L'ultimo padrino (2008)_DVDRip_Part - 2_.avi
Title: L'ultimo padrino (2008)
Author: Marco Risi
Copyleft: Ripped_by_rjhlb777
Genre: Biography, Crime, Drama
Category: Movie
Comment: VO (Project_Web_Money) + Original ITA
FileSize: 1500.55 Mb ( 1 573 445 632 bytes )
Play length: 01:32:52.759 (139319 frames)
Subtitles: RUS_(ladySpais)_ (SubRip format)
Video: 704x384 (1.83:1), 25 fps, XviD build 50 ~1859 kbps avg, 0.28 bit/pixel
Audio #1: 48 kHz, AC3 Dolby Digital, 2/0 (L,R) ch, ~192 kbps
Audio #2: 48 kHz, AC3 Dolby Digital, 2/0 (L,R) ch, ~192 kbps

MediaInfo

General
Complete name : C:\Temp\L'ultimo padrino (2008)_DVDRip_\L'ultimo padrino (2008)_DVDRip_Part - 1_.avi
Format : AVI
Format/Info : Audio Video Interleave
File size : 1.47 GiB
Duration : 1h 32mn
Overall bit rate : 2 272 Kbps
Movie name : L'ultimo padrino (2008)
Director : Marco Risi
Genre : Biography, Crime, Drama
Writing application : VirtualDubMod 1.5.10.3 | www.virtualdub-fr.org || (build 2550/release)
Original source form/Name : Movie
Copyright : Ripped_by_rjhlb777
Comment : VO (Project_Web_Money) + Original ITA
Video
ID : 0
Format : MPEG-4 Visual
Format profile : Advanced Simple@L5
Format settings, BVOP : 1
Format settings, QPel : No
Format settings, GMC : No warppoints
Format settings, Matrix : Default (MPEG)
Codec ID : XVID
Codec ID/Hint : XviD
Duration : 1h 32mn
Bit rate : 1 874 Kbps
Width : 704 pixels
Height : 384 pixels
Display aspect ratio : 1.85:1
Frame rate : 25.000 fps
Color space : YUV
Chroma subsampling : 4:2:0
Bit depth : 8 bits
Scan type : Progressive
Compression mode : Lossy
Bits/(Pixel*Frame) : 0.277
Stream size : 1.21 GiB (82%)
Writing library : XviD 1.2.1 (UTC 2008-12-04)
Audio #1
ID : 1
Format : AC-3
Format/Info : Audio Coding 3
Mode extension : CM (complete main)
Format settings, Endianness : Big
Codec ID : 2000
Duration : 1h 32mn
Bit rate mode : Constant
Bit rate : 192 Kbps
Channel(s) : 2 channels
Channel positions : Front: L R
Sampling rate : 48.0 KHz
Compression mode : Lossy
Stream size : 127 MiB (8%)
Alignment : Split accross interleaves
Interleave, duration : 40 ms (1.00 video frame)
Interleave, preload duratio : 500 ms
Audio #2
ID : 2
Format : AC-3
Format/Info : Audio Coding 3
Mode extension : CM (complete main)
Format settings, Endianness : Big
Codec ID : 2000
Duration : 1h 32mn
Bit rate mode : Constant
Bit rate : 192 Kbps
Channel(s) : 2 channels
Channel positions : Front: L R
Sampling rate : 48.0 KHz
Compression mode : Lossy
Stream size : 127 MiB (8%)
Alignment : Split accross interleaves
Interleave, duration : 40 ms (1.00 video frame)
Interleave, preload duratio : 500 ms
================================================================
================================================================
General
Complete name : C:\Temp\L'ultimo padrino (2008)_DVDRip_\L'ultimo padrino (2008)_DVDRip_Part - 2_.avi
Format : AVI
Format/Info : Audio Video Interleave
File size : 1.47 GiB
Duration : 1h 32mn
Overall bit rate : 2 259 Kbps
Movie name : L'ultimo padrino (2008)
Director : Marco Risi
Genre : Biography, Crime, Drama
Writing application : VirtualDubMod 1.5.10.3 | www.virtualdub-fr.org || (build 2550/release)
Original source form/Name : Movie
Copyright : Ripped_by_rjhlb777
Comment : VO (Project_Web_Money) + Original ITA
Video
ID : 0
Format : MPEG-4 Visual
Format profile : Advanced Simple@L5
Format settings, BVOP : 1
Format settings, QPel : No
Format settings, GMC : No warppoints
Format settings, Matrix : Default (MPEG)
Codec ID : XVID
Codec ID/Hint : XviD
Duration : 1h 32mn
Bit rate : 1 860 Kbps
Width : 704 pixels
Height : 384 pixels
Display aspect ratio : 1.85:1
Frame rate : 25.000 fps
Color space : YUV
Chroma subsampling : 4:2:0
Bit depth : 8 bits
Scan type : Progressive
Compression mode : Lossy
Bits/(Pixel*Frame) : 0.275
Stream size : 1.21 GiB (82%)
Writing library : XviD 1.2.1 (UTC 2008-12-04)
Audio #1
ID : 1
Format : AC-3
Format/Info : Audio Coding 3
Mode extension : CM (complete main)
Format settings, Endianness : Big
Codec ID : 2000
Duration : 1h 32mn
Bit rate mode : Constant
Bit rate : 192 Kbps
Channel(s) : 2 channels
Channel positions : Front: L R
Sampling rate : 48.0 KHz
Compression mode : Lossy
Stream size : 128 MiB (9%)
Alignment : Split accross interleaves
Interleave, duration : 40 ms (1.00 video frame)
Interleave, preload duratio : 500 ms
Audio #2
ID : 2
Format : AC-3
Format/Info : Audio Coding 3
Mode extension : CM (complete main)
Format settings, Endianness : Big
Codec ID : 2000
Duration : 1h 32mn
Bit rate mode : Constant
Bit rate : 192 Kbps
Channel(s) : 2 channels
Channel positions : Front: L R
Sampling rate : 48.0 KHz
Compression mode : Lossy
Stream size : 128 MiB (9%)
Alignment : Split accross interleaves
Interleave, duration : 40 ms (1.00 video frame)
Interleave, preload duratio : 500 ms
Скриншоты сравнениялорди74 http://torrentfilm.net/forum/viewtopic.php?t=4944192
лорди74 писал(а):66935694./Последний_Крестный_Отец_VO+SUB 2.64 GB
01_serya_sub rus.srt 68.28 KB 69921
01_serya.avi 1.32 GB 1419368448
02_serya_sub rus.srt 62.24 KB 63737
02_serya.avi 1.31 GB 1416570880
Не обрезан полностью по бокам, да и вес рипа нестандартный.
http://screenshotcomparison.com/comparison/156650/picture:4
[Профиль] [ЛС]

Создавать темы 12-Июн-2016 08:50 (спустя 5 месяцев 3 дня)

Топик был перенесен из форума Фильмы 2011 года в форум Фильмы 2006-2008 года
Russian Mafia
 
Показать сообщения:    

Текущее время: Сегодня 11:06

Часовой пояс: GMT



Вы не можете начинать темы
Вы не можете отвечать на сообщения
Вы не можете редактировать свои сообщения
Вы не можете удалять свои сообщения
Вы не можете голосовать в опросах
Вы не можете прикреплять файлы к сообщениям
Вы не можете скачивать файлы