Последний поворот / Lemon Tree Passage (2015) BDRip 1080p | iTunes

 
Автор Сообщение

BOSS ®

Пол:

Стаж: 2 года 2 месяца

Сообщений: 3751

Откуда: ODESSA



Награды: 20 (Подробнее)

Mega Releaser 1 (Количество: 1) Top Keeper 3 (Количество: 1) Top Releaser 4 (Количество: 1)
Торрент-статистика

Создавать темы 16-Окт-2016 16:39

[Цитировать]

Информация о фильме
Название: Последний поворот
Оригинальное название: Lemon Tree Passage
Год выпуска: 2015
Страна: Австралия
Жанр: ужасы, триллер, детектив-Перевод: Дубляж - [iTunes]
Продолжительность: 01:23:30-Режиссер: Дэвид Кэмпбелл
В ролях: Джессика Тоуви (Maya), Николас Ганн (Sam), Пиппа Блэк (Amelia), Тим Филлиппс (Geordie), Эндрю Райан (Oscar), Тим Пакок (Toby), Пьера Форде (Brianna), Дин Киркрайт (Gang Member)-Описание:
Компания молодых людей решает проверить на собственном опыте знаменитую байку о призраке. Местные говорят, что призрак является в зеркале заднего вида каждому, кто осмелится проехать на высокой скорости по одинокому шоссе Лемон Три. Поездка, которая планировалась, как невинное развлечение, оборачивается зловещим кошмаром для всех её участников.-Рейтинг:
-Качество: BDRip 1080p
Формат: MKV
Видео: AVC, 1920x816 (2.35:1), 9737 kbps, 24 fps, 0,259 bpp
Аудио №1: русский / AC3 / 5.1 / 48 kHz / 384 kbps / |Дубляж, iTunes|
Аудио №2: английский / DTS / 5.1 / 48 kHz / 1509 kbps / 24 bit
Навигация по главам: есть
Сэмпл-

ОтчетМедиаИнфо

Общее
Уникальный идентификатор : 171054802911383353453470707354118310200 (0x80AFF4EAAC578106883EEF8160F6C938)
Полное имя : E:Lemon.Tree.Passage.2015.BDRip.1080p.mkv
Формат : Matroska
Версия формата : Version 4 / Version 2
Размер файла : 6,78 Гбайт
Продолжительность : 1 ч. 23 м.
Общий поток : 11,6 Мбит/сек
Дата кодирования : UTC 2016-10-16 14:38:17
Программа кодирования : mkvmerge v9.4.2 ('So High') 64bit
Библиотека кодирования : libebml v1.3.4 + libmatroska v1.4.5
Видео
Идентификатор : 1
Формат : AVC
Формат/Информация : Advanced Video Codec
Профиль формата : High@L4.1
Параметр CABAC формата : Да
Параметр ReFrames формата : 5 кадров
Идентификатор кодека : V_MPEG4/ISO/AVC
Продолжительность : 1 ч. 23 м.
Битрейт : 9737 Кбит/сек
Ширина : 1920 пикселей
Высота : 816 пикселей
Соотношение сторон : 2,35:1
Режим частоты кадров : Постоянный
Частота кадров : 24,000 кадра/сек
Цветовое пространство : YUV
Субдискретизация насыщенности : 4:2:0
Битовая глубина : 8 бит
Тип развёртки : Прогрессивная
Бит/(Пиксели*Кадры) : 0.259
Размер потока : 5,68 Гбайт (84%)
Библиотека кодирования : x264 core 144 r2525 40bb568
Настройки программы : cabac=1 / ref=5 / deblock=1:-3:-3 / analyse=0x3:0x113 / me=umh / subme=11 / psy=1 / psy_rd=1.05:0.00 / mixed_ref=1 / me_range=36 / chroma_me=1 / trellis=2 / 8x8dct=1 / cqm=0 / deadzone=21,11 / fast_pskip=0 / chroma_qp_offset=-2 / threads=12 / lookahead_threads=3 / sliced_threads=0 / nr=0 / decimate=0 / interlaced=0 / bluray_compat=0 / constrained_intra=0 / bframes=10 / b_pyramid=2 / b_adapt=2 / b_bias=0 / direct=3 / weightb=1 / open_gop=0 / weightp=2 / keyint=250 / keyint_min=24 / scenecut=40 / intra_refresh=0 / rc=2pass / mbtree=0 / bitrate=9737 / ratetol=1.0 / qcomp=0.60 / qpmin=0 / qpmax=69 / qpstep=4 / cplxblur=20.0 / qblur=0.5 / ip_ratio=1.40 / pb_ratio=1.30 / aq=1:0.60
Язык : English
Default : Да
Forced : Нет
Аудио #1
Идентификатор : 2
Формат : AC-3
Формат/Информация : Audio Coding 3
Расширение режима : CM (complete main)
Параметр Endianness формата : Big
Идентификатор кодека : A_AC3
Продолжительность : 1 ч. 23 м.
Вид битрейта : Постоянный
Битрейт : 384 Кбит/сек
Каналы : 6 каналов
Расположение каналов : Front: L C R, Side: L R, LFE
Частота : 48,0 КГц
Частота кадров : 31,250 кадров/сек (1536 spf)
Метод сжатия : С потерями
Размер потока : 229 Мбайт (3%)
Заголовок : Дубляж [iTunes]
Язык : Russian
Default : Да
Forced : Нет
Аудио #2
Идентификатор : 3
Формат : DTS
Формат/Информация : Digital Theater Systems
Режим : 16
Параметр Endianness формата : Big
Идентификатор кодека : A_DTS
Продолжительность : 1 ч. 23 м.
Вид битрейта : Постоянный
Битрейт : 1509 Кбит/сек
Каналы : 6 каналов
Расположение каналов : Front: L C R, Side: L R, LFE
Частота : 48,0 КГц
Частота кадров : 93,750 кадра/сек (512 spf)
Битовая глубина : 24 бит
Метод сжатия : С потерями
Размер потока : 901 Мбайт (13%)
Заголовок : Оригинал
Язык : English
Default : Нет
Forced : Нет
Меню
00:00:00.000 : en:00:00:00.000
00:08:53.458 : en:00:08:53.458
00:15:17.333 : en:00:15:17.333
00:23:41.708 : en:00:23:41.708
00:31:00.792 : en:00:31:00.792
00:35:08.875 : en:00:35:08.875
00:42:21.917 : en:00:42:21.917
00:52:58.167 : en:00:52:58.167
01:02:22.875 : en:01:02:22.875
01:12:24.125 : en:01:12:24.125

Скриншоты

[Профиль] [ЛС]
Показать сообщения:    

Текущее время: Сегодня 12:08

Часовой пояс: GMT



Вы не можете начинать темы
Вы не можете отвечать на сообщения
Вы не можете редактировать свои сообщения
Вы не можете удалять свои сообщения
Вы не можете голосовать в опросах
Вы не можете прикреплять файлы к сообщениям
Вы не можете скачивать файлы