Последний поворот / Lemon Tree Passage (2015) HDRip [Звук с TS]

 
Автор Сообщение

Fidail555 ®

Стаж: 2 месяца 16 дней

Сообщений: 2



Награды: Нет

Торрент-статистика

Создавать темы 23-Сен-2016 12:03

[Цитировать]

Последний поворот (2015) / Lemon Tree Passage
Год выпуска: 2015
Страна: Австралия
Жанр: ужасы, триллер, детектив
Продолжительность: 01:23:41
Перевод: Дублированный (Звук с TS)
Режиссер: Дэвид Кэмпбелл
В ролях: Джессика Тоуви, Николас Ганн, Пиппа Блэк, Тим Филлиппс, Эндрю Райан, Тим Пакок, Пьера Форде, Дин Киркрайт
Описание: Среди людей ходит множество самых разных легенд об обитателях потустороннего мира. Зачастую эти страшилки являются выдуманными, чтобы вселить страх в наивных и суеверных личностей. Однако есть и те, что основаны на реальных событиях и имеют прецеденты. Не так просто понять, что перед тобой выдумка или реальная история, а ощутить чувство страха перед неизвестностью хотят многие, но большинство из них искренне верят, что ничего плохо не случится и они отделаются лишь всплеском адреналина и незабываемыми ощущениями.
Главные герои этого фильма думали точно так же, пока впервые не встретились с настоящим злом. Существует одно особенное шоссе, на котором погиб мотоциклист в результате грубого нарушения правил другим участником движения. Виновник аварии сильно превысил скорость, в результате чего не смог вовремя среагировать и сбил водителя мотоцикла. Теперь, по слухам, этот призрак иногда возвращается в наш мир, когда видит наглое нарушение ПДД на той самой дороге.
Шоссе называется Лемон Три, на нём нечасто можно увидеть машины. Байка гласит, что потустороннее существо сначала появляется в зеркале заднего вида, и только после того, как нарушитель увидит его, призрак начинает действовать. Группа молодых людей решает проверить эту страшилку и отправляются вечером погонять на знаменитом шоссе.

Доп. информация: Gрисутствуют аудио и видео вставки рекламы.
Сэмпл
Качество: HDRip
Формат: AVI
Видео кодек: XviD
Аудио кодек: AC3
Видео: XviD, 1920 Кбит/с, 720x304
Аудио: AC3, 2 ch, 384 Кбит/с

MI

Lemon.Tree.Passage.2015.Dt.HDRip.14OOMB.avi
Format : AVI
Format/Info : Audio Video Interleave
File size : 1.36 GiB
Duration : 1 h 24 min
Overall bit rate : 2 314 kb/s
Writing application : VirtualDubMod 1.5.10.2 (build 2540/release)
Writing library : VirtualDubMod build 2540/release
Video
ID : 0
Format : MPEG-4 Visual
Format profile : Advanced Simple@L5
Format settings, BVOP : 2
Format settings, QPel : No
Format settings, GMC : No warppoints
Format settings, Matrix : Custom
Codec ID : XVID
Codec ID/Hint : XviD
Duration : 1 h 24 min
Bit rate : 1 920 kb/s
Width : 720 pixels
Height : 304 pixels
Display aspect ratio : 2.35:1
Frame rate : 23.976 (24000/1001) FPS
Color space : YUV
Chroma subsampling : 4:2:0
Bit depth : 8 bits
Scan type : Progressive
Compression mode : Lossy
Bits/(Pixel*Frame) : 0.366
Stream size : 1.13 GiB (83%)
Writing library : XviD 1.2.1 (UTC 2008-12-04)
Audio
ID : 1
Format : AC-3
Format/Info : Audio Coding 3
Mode extension : CM (complete main)
Format settings, Endianness : Big
Codec ID : 2000
Duration : 1 h 24 min
Bit rate mode : Constant
Bit rate : 384 kb/s
Channel(s) : 2 channels
Channel positions : Front: L R
Sampling rate : 48.0 kHz
Frame rate : 31.250 FPS (1536 spf)
Compression mode : Lossy
Stream size : 231 MiB (17%)
Alignment : Split accross interleaves
Interleave, duration : 42 ms (1.00 video frame)
Interleave, preload duratio : 500 ms

Скриншоты



Последний раз редактировалось: Fidail555 (2016-09-24 05:30), всего редактировалось 3 раз(а)
[Профиль] [ЛС]

Russian Mafia

Пол:

Стаж: 1 год 8 месяцев

Сообщений: 4257



Награды: 10 (Подробнее)

Top Releaser 2 (Количество: 1) Mega Seeder 5 (Количество: 1) Mega Seeder 4 (Количество: 1)
Торрент-статистика

Создавать темы 24-Сен-2016 06:38 (спустя 18 часов)

[Цитировать]

Помог вам с оформлением, в будущих своих раздачах придерживайтесь правильного оформления
[Профиль] [ЛС]

Fidail555 ®

Стаж: 2 месяца 16 дней

Сообщений: 2



Награды: Нет

Торрент-статистика

Создавать темы 25-Сен-2016 05:19 (спустя 22 часа)

[Цитировать]

хорошо спасибо
[Профиль] [ЛС]
Показать сообщения:    

Текущее время: Сегодня 11:53

Часовой пояс: GMT



Вы не можете начинать темы
Вы не можете отвечать на сообщения
Вы не можете редактировать свои сообщения
Вы не можете удалять свои сообщения
Вы не можете голосовать в опросах
Вы не можете прикреплять файлы к сообщениям
Вы не можете скачивать файлы