Последний охотник на ведьм / The Last Witch Hunter (2015) WEB-DL 720p | iTunes

 
Автор Сообщение

BOSS ®

Пол:

Стаж: 2 года 1 месяц

Сообщений: 3718

Откуда: ODESSA



Награды: 20 (Подробнее)

Mega Seeder 3 (Количество: 1) За внесенный вклад в развитие сайта (Количество: 1) Top Seeder 4 (Количество: 1)
Торрент-статистика

Создавать темы 11-Янв-2016 21:29

[Цитировать]

Информация о фильме
Название: Последний охотник на ведьм
Оригинальное название: The Last Witch Hunter
Год выхода: 2015
Жанр: фэнтези, боевик, приключения
Режиссер: Брек Эйснер
В ролях: Вин Дизель, Роуз Лесли, Элайджа Вуд, Оулавюр Дарри Оулафссон, Рина Оуэн, Юли Энгельбрехт, Майкл Кейн, Джозеф Гилган, Исаак Де Банколе, Майкл Халсли
О фильме: Современный мир скрывает множество секретов, но самым удивительным из них является то, что ведьмы до сих пор живут среди нас. Это злобные сверхъестественные существа, чья цель — наслать на мир смертоносную чуму. Армии охотников на ведьм сражались с ними на протяжении многих веков. В наши дни остался всего лишь один охотник на ведьм, Колдер, которому однажды удалось убить всемогущую королеву ведьм. Но Колдер еще не знает, что королева воскресла и жаждет отомстить своему убийце…

Выпущено: США / Aperture Entertainment, Atmosphere Entertainment MM, NeoReel
Продолжительность: 01:46:26
Озвучивание: Дублированное [iTunes]
Файл
Формат: MKV
Качество: WEB-DL 720p
Видео: MPEG-4 AVC, 3915 kb/s, 1280x720
Аудио: AC3, 384 kb/s (6 ch)

MI

Format : Matroska
Format version : Version 4 / Version 2
File size : 3.26 GiB
Duration : 1h 46mn
Overall bit rate : 4 387 Kbps
Encoded date : UTC 2016-01-11 19:31:22
Writing application : mkvmerge v8.3.0 ('Over the Horizon') 64bit
Writing library : libebml v1.3.1 + libmatroska v1.4.2
Video
ID : 1
Format : AVC
Format/Info : Advanced Video Codec
Format profile : High@L3.1
Format settings, CABAC : No
Format settings, ReFrames : 2 frames
Codec ID : V_MPEG4/ISO/AVC
Duration : 1h 46mn
Bit rate : 3 915 Kbps
Width : 1 280 pixels
Height : 720 pixels
Display aspect ratio : 16:9
Frame rate mode : Constant
Frame rate : 24.000 fps
Color space : YUV
Chroma subsampling : 4:2:0
Bit depth : 8 bits
Scan type : Progressive
Bits/(Pixel*Frame) : 0.177
Stream size : 2.91 GiB (89%)
Language : English
Default : Yes
Forced : No
Color range : Limited
Color primaries : BT.709
Transfer characteristics : BT.709
Matrix coefficients : BT.709
Audio
ID : 2
Format : AC-3
Format/Info : Audio Coding 3
Mode extension : CM (complete main)
Format settings, Endianness : Big
Codec ID : A_AC3
Duration : 1h 46mn
Bit rate mode : Constant
Bit rate : 384 Kbps
Channel(s) : 6 channels
Channel positions : Front: L C R, Side: L R, LFE
Sampling rate : 48.0 KHz
Bit depth : 16 bits
Compression mode : Lossy
Stream size : 292 MiB (9%)
Language : Russian
Default : Yes
Forced : No
Menu
00:00:00.000 : en:Глава 1
00:05:21.000 : en:Глава 2
00:12:06.000 : en:Глава 3
00:18:03.000 : en:Глава 4
00:25:15.000 : en:Глава 5
00:30:58.000 : en:Глава 6
00:36:21.000 : en:Глава 7
00:42:57.000 : en:Глава 8
00:49:17.000 : en:Глава 9
00:54:59.000 : en:Глава 10
01:00:28.000 : en:Глава 11
01:05:48.000 : en:Глава 12
01:12:07.000 : en:Глава 13
01:17:47.000 : en:Глава 14
01:23:42.000 : en:Глава 15
01:29:42.000 : en:Глава 16
01:35:48.000 : en:Глава 17

Скриншоты

[Профиль] [ЛС]
Показать сообщения:    

Текущее время: Сегодня 08:30

Часовой пояс: GMT



Вы не можете начинать темы
Вы не можете отвечать на сообщения
Вы не можете редактировать свои сообщения
Вы не можете удалять свои сообщения
Вы не можете голосовать в опросах
Вы не можете прикреплять файлы к сообщениям
Вы не можете скачивать файлы