Последний настоящий мужчина / Last Man Standing [S04] (2014-2015) WEB-DLRip | Paramount Comedy

 
Автор Сообщение

Russian Mafia ®

Пол:

Стаж: 1 год 8 месяцев

Сообщений: 4257



Награды: 10 (Подробнее)

Mega Seeder 2 (Количество: 1) Top Releaser 3 (Количество: 1) Top Releaser 5 (Количество: 1)
Торрент-статистика

Создавать темы 27-Сен-2016 06:59

[Цитировать]

Последний настоящий мужчина / Last Man Standing
Страна: США
Производство: 20th Century Fox Television, 21 Laps Entertainment, Double Wide Productions, Lost Marbles Productions
Год выпуска: 2014-2015
Сезон: 4
Жанр: комедия
Продолжительность: 22х ~00:22:00
Режиссеры: Джон Пасквин, Виктор Гонзалез, Тед Уасс
Авторы сценария: Джек Бёрдитт, Джон Хэллер, Ричард Брэндон Манус
В ролях: Тим Аллен, Нэнси Трэвис, Молли Эфраим, Кейтлин Дивер, Гектор Элизондо, Кристоф Сандерс, Аманда Фуллер, Флинн Моррисон
Описание: Сегодняшний мир принадлежит женщинам, а этот мужчина задался целью вернуть остальным мужчинам достойное место в обществе.
Мужчины создавали цивилизации, изобрели локомотив и спортивный канал ESPN, но им приходится выяснить, что мир им больше не принадлежит. Быть мужественнее чем Майк Бакстер невозможно. Он маркетинговый директор легендарного спортивного магазина, обожает приключения во время командировок, и, конечно же, водит пикап. Хотя на работе Майк круче всех, дома он под каблуком у женщин: у своей жены Ванессы, и у трёх дочерей — 22-летней Кристин, 17-летней Мэнди и 14-летней Ив...

Перевод: Профессиональный (полное дублирование) | Paramount Comedy
Субтитры: нет-Качество: WEB-DLRip
Формат: AVI
Видео кодек: XviD
Аудио кодек: МР3
Видео: 720x400 (16:9), 23.976 fps, XviD build 64 ~1 263 kbps avg
Аудио №1: 48.0 kHz, MPEG Layer 3, 2 ch, ~128 kbps | RUS
Аудио №2: 48.0 kHz, MPEG Layer 3, 2 ch, ~128 kbps | ENG
Дата премьеры (мир): 3 октября 2014
Релиз от: TaLi4

Media Info

General
Complete name : last_man_standing.s04e01.web-dl.rus(paramount.comedy).avi
Format : AVI
Format/Info : Audio Video Interleave
File size : 235 MiB
Duration : 21mn 28s
Overall bit rate : 1 533 Kbps
Writing application : VirtualDubMod 1.5.10.3 | (build 2550/release)
Writing library : VirtualDubMod build 2550/release
Video
ID : 0
Format : MPEG-4 Visual
Format profile : Advanced Simple@L5
Format settings, BVOP : 2
Format settings, QPel : No
Format settings, GMC : No warppoints
Format settings, Matrix : Default (H.263)
Codec ID : XVID
Codec ID/Hint : XviD
Duration : 21mn 28s
Bit rate : 1 263 Kbps
Width : 720 pixels
Height : 400 pixels
Display aspect ratio : 16:9
Frame rate : 23.976 fps
Color space : YUV
Chroma subsampling : 4:2:0
Bit depth : 8 bits
Scan type : Progressive
Compression mode : Lossy
Bits/(Pixel*Frame) : 0.183
Stream size : 194 MiB (82%)
Writing library : XviD 64
Audio #1
ID : 1
Format : MPEG Audio
Format version : Version 1
Format profile : Layer 3
Mode : Joint stereo
Mode extension : MS Stereo
Codec ID : 55
Codec ID/Hint : MP3
Duration : 21mn 27s
Bit rate mode : Constant
Bit rate : 128 Kbps
Channel(s) : 2 channels
Sampling rate : 48.0 KHz
Compression mode : Lossy
Stream size : 19.7 MiB (8%)
Alignment : Aligned on interleaves
Interleave, duration : 42 ms (1.00 video frame)
Interleave, preload duratio : 504 ms
Audio #2
ID : 2
Format : MPEG Audio
Format version : Version 1
Format profile : Layer 3
Mode : Joint stereo
Mode extension : MS Stereo
Codec ID : 55
Codec ID/Hint : MP3
Duration : 21mn 28s
Bit rate mode : Constant
Bit rate : 128 Kbps
Channel(s) : 2 channels
Sampling rate : 48.0 KHz
Compression mode : Lossy
Stream size : 19.7 MiB (8%)
Alignment : Aligned on interleaves
Interleave, duration : 42 ms (1.00 video frame)
Interleave, preload duratio : 504 ms
Writing library : LAME3.99r
Encoding settings : -m j -V 4 -q 0 -lowpass 17 -b 128

Скриншоты

[Профиль] [ЛС]
Показать сообщения:    

Текущее время: Сегодня 10:03

Часовой пояс: GMT



Вы не можете начинать темы
Вы не можете отвечать на сообщения
Вы не можете редактировать свои сообщения
Вы не можете удалять свои сообщения
Вы не можете голосовать в опросах
Вы не можете прикреплять файлы к сообщениям
Вы не можете скачивать файлы