Последний луч света / The Last Light (Эндрю Хайатт / Andrew Hyatt) [2014, США, триллер, драма, WEB-DLRip] VO (datynet)

 
Автор Сообщение

reversefile ®

Пол:

Стаж: 5 лет 5 месяцев

Сообщений: 842

Откуда: ReverseFile.org



Награды: Нет

Торрент-статистика

Создавать темы 24-Июл-2014 17:56

[Цитировать]

Последний луч света / The Last Light
Страна: США
Жанр: триллер, драма
Год выпуска: 2014
Продолжительность: 01:33:09
Перевод: Одноголосый закадровый datynet
Cубтитры: нет
Оригинальная аудиодорожка: нет
Режиссер: Эндрю Хайатт / Andrew Hyatt
В ролях: Эдвард Ферлонг, Джефф Фэйи, Ивонн Зима, Эд Куинн, Молли Хэйгэн, Тахина Тоцци-МакМанус, Сет Д. Митчелл
Описание: Семь незнакомых друг с другом людей оказываются в ловушке внутри заброшенной больницы после необъяснимых апокалиптических событий. Помимо простого выживания, они должны бороться с загадочными существами, которые выслеживают их по одиночке.
Сэмпл: http://multi-up.com/988390
Качество видео: WEB-DLRip
Формат видео: AVI
Видео: 720x384 (1.88:1), 23.976 fps, XviD build 50 ~1895 kbps avg, 0.29 bit/pixel
Аудио: 44.100 kHz, MPEG Layer 3, 2 ch, ~192.00 kbps avg

MediaInfo

General
Complete name : C:\Users\Вика\Desktop\The.Last.Light.2014.WEBDLRip.avi
Format : AVI
Format/Info : Audio Video Interleave
File size : 1.36 GiB
Duration : 1h 33mn
Overall bit rate : 2 097 Kbps
Writing application : VirtualDubMod 1.5.10.3 | www.virtualdub-fr.org || (build 2550/release)
Writing library : VirtualDubMod build 2550/release
Video
ID : 0
Format : MPEG-4 Visual
Format profile : Advanced Simple@L5
Format settings, BVOP : Yes
Format settings, QPel : No
Format settings, GMC : No warppoints
Format settings, Matrix : Custom
Codec ID : XVID
Codec ID/Hint : XviD
Duration : 1h 33mn
Bit rate : 1 895 Kbps
Width : 720 pixels
Height : 384 pixels
Display aspect ratio : 1.85:1
Frame rate : 23.976 fps
Color space : YUV
Chroma subsampling : 4:2:0
Bit depth : 8 bits
Scan type : Progressive
Compression mode : Lossy
Bits/(Pixel*Frame) : 0.286
Stream size : 1.23 GiB (90%)
Writing library : XviD 1.2.1 (UTC 2008-12-04)
Audio
ID : 1
Format : MPEG Audio
Format version : Version 1
Format profile : Layer 3
Codec ID : 55
Codec ID/Hint : MP3
Duration : 1h 33mn
Bit rate mode : Constant
Bit rate : 192 Kbps
Channel count : 2 channels
Sampling rate : 44.1 KHz
Compression mode : Lossy
Stream size : 128 MiB (9%)
Alignment : Split accross interleaves
Interleave, duration : 42 ms (1.00 video frame)
Interleave, preload duration : 500 ms

Скриншоты

[Профиль] [ЛС]
Кто просматривает тему:

Форум Тема Автор Размер
Pop (Pop) Анастасия Стоцкая - Последний Шаг - 2015, MP3, 320 kbps достали все 103 MB
Rock (Rock)Кино (Виктор Цой) - Последние записи - 1990 (опубликовано 2002), FLAC (image+.cue), lossless sergej644 466 MB
Rock (Рок) Белый проект - Последний день на Земле - 2015, MP3, 320 kbps достали все 54 MB
Фильмы 2016 года 1898. Последние на Филиппинах / 1898. Los últimos de Filipinas (2016) HDRip | L BOSS 2.05 GB
Фильмы (HD DVD, Blu-ray и BDRemux) 2019: После падения Нью-Йорка / 2019 - Dopo la caduta di New York (1983) BDRemux 1080р | L1 BOSS 24.17 GB
Фильмы (HD Rips | 720p, 1080p) 2019: После падения Нью-Йорка / 2019 - Dopo la caduta di New York (1983) BDRip 1080p | L1 Swager 5.92 GB
BBC BBC: Последние царственные воины Европы (1066: Год, чтобы покорить Англию) / Europe's Last Warrior Kings (1066: A Year to Conquer England) [серии 1-3 из 3](Tim Dunn, Robin Dashwood) [2016 ... skorpionN 10.25 GB
Культура и искусство BBC: Саймон Шама о Рембрандте. Шедевры последних лет / Schama on Rembrandt: Masterpieces of the Late Years (Франк Ханли / Frank Hanly) [2014 г., Документальный, искусство, биография, HDTVRip-AVC... skorpionN 1.75 GB
Показать сообщения:    

Текущее время: Сегодня 18:39

Часовой пояс: GMT



Вы не можете начинать темы
Вы не можете отвечать на сообщения
Вы не можете редактировать свои сообщения
Вы не можете удалять свои сообщения
Вы не можете голосовать в опросах
Вы не можете прикреплять файлы к сообщениям
Вы не можете скачивать файлы