Последний лепесток (Роман Качанов) [1977, Рисованный мультфильм, DVDRip]

 
Автор Сообщение

painkiller ®

Стаж: 3 года 3 месяца

Сообщений: 582



Награды: Нет

Торрент-статистика

Создавать темы 27-Авг-2014 19:42

[Цитировать]

Последний лепесток
Страна: СССР
Жанр: Рисованный мультфильм
Продолжительность: 00:24:51
Год выпуска: 1977
Русские субтитры: нет
Режиссёр: Роман Качанов
Роли озвучивали: Мария Виноградова,Владимир Гуляев,Люсьена Овчинникова,Нина Зорская,М.Громова,Агарь Власова,Т.Дмитриева
Описание: Современная сказка по пьесе В.Катаева «Цветик-семицветик». История о девочке Жене, которая получает от старой волшебницы чудесный цветок, исполняющий любые семь желаний.
Доп. информация:
«Союзмультфильм»
Художники-постановщики: Елена Пророкова, Константин Карпов
Художники: Инна Заруба, Дмитрий Анпилов, Пётр Коробаев, И. Литовская и др.
Оператор: Борис Котов
Директор: Фёдор Иванов
Монтажёр: Любовь Георгиева
Композитор: Геннадий Гладков
Звукорежиссёр: Борис Фильчиков
Редактор: Наталья Абрамова
Качество: DVDRip
Формат: AVI
Видео: 704x528 (1.33:1), 25 fps, XviD 65 ~2147 kbps avg, 0.23 bit/pixel
Аудио: 48 kHz, AC3 Dolby Digital, 1/0 (C) ch, ~96.00 kbps avg
Субтитры: нет

Подробные технические данные

Format : AVIFormat/Info : Audio Video InterleaveFile size : 452 MiBDuration : 24mn 51sOverall bit rate : 2 541 KbpsWriting application : VirtualDubModRus 1.5.10.2 (build 2542/release)Copyright : Rutracker.orgComment : DVDRip by dvdss
VideoID : 0Format : MPEG-4 VisualFormat profile : Advanced Simple@L5Format settings, BVOP : 2Format settings, QPel : NoFormat settings, GMC : No warppointsFormat settings, Matrix : CustomCodec ID : XVIDCodec ID/Hint : XviDDuration : 24mn 51sBit rate : 2 148 KbpsWidth : 704 pixelsHeight : 528 pixelsDisplay aspect ratio : 5:4Original display aspect ratio : 4:3Frame rate : 25.000 fpsColor space : YUVChroma subsampling : 4:2:0Bit depth : 8 bitsScan type : ProgressiveCompression mode : LossyBits/(Pixel*Frame) : 0.231Stream size : 382 MiB (85%)Writing library : XviD 65
AudioID : 1Format : AC-3Format/Info : Audio Coding 3Mode extension : CM (complete main)Format settings, Endianness : BigCodec ID : 2000Duration : 24mn 51sBit rate mode : ConstantBit rate : 96.0 KbpsChannel(s) : 1 channelChannel positions : Front: CSampling rate : 48.0 KHzBit depth : 16 bitsCompression mode : LossyStream size : 17.1 MiB (4%)Alignment : Split accross interleavesInterleave, duration : 40 ms (1.00 video frame)Interleave, preload duration : 500 ms
[Профиль] [ЛС]
Кто просматривает тему:

Форум Тема Автор Размер
Pop (Pop) Анастасия Стоцкая - Последний Шаг - 2015, MP3, 320 kbps достали все 103 MB
Rock (Rock)Кино (Виктор Цой) - Последние записи - 1990 (опубликовано 2002), FLAC (image+.cue), lossless sergej644 466 MB
Rock (Рок) Белый проект - Последний день на Земле - 2015, MP3, 320 kbps достали все 54 MB
Фильмы 2016 года 1898. Последние на Филиппинах / 1898. Los últimos de Filipinas (2016) HDRip | L BOSS 2.05 GB
Фильмы (HD DVD, Blu-ray и BDRemux) 2019: После падения Нью-Йорка / 2019 - Dopo la caduta di New York (1983) BDRemux 1080р | L1 BOSS 24.17 GB
Фильмы (HD Rips | 720p, 1080p) 2019: После падения Нью-Йорка / 2019 - Dopo la caduta di New York (1983) BDRip 1080p | L1 Swager 5.92 GB
BBC BBC: Последние царственные воины Европы (1066: Год, чтобы покорить Англию) / Europe's Last Warrior Kings (1066: A Year to Conquer England) [серии 1-3 из 3](Tim Dunn, Robin Dashwood) [2016 ... skorpionN 10.25 GB
Культура и искусство BBC: Саймон Шама о Рембрандте. Шедевры последних лет / Schama on Rembrandt: Masterpieces of the Late Years (Франк Ханли / Frank Hanly) [2014 г., Документальный, искусство, биография, HDTVRip-AVC... skorpionN 1.75 GB
Показать сообщения:    

Текущее время: Сегодня 15:26

Часовой пояс: GMT



Вы не можете начинать темы
Вы не можете отвечать на сообщения
Вы не можете редактировать свои сообщения
Вы не можете удалять свои сообщения
Вы не можете голосовать в опросах
Вы не можете прикреплять файлы к сообщениям
Вы не можете скачивать файлы