Последний король Шотландии / The Last King of Scotland (2006) BDRip 1080p от NNNB | D,P,P2

 
Автор Сообщение

sergej644 ®

Пол:

Стаж: 4 года 11 месяцев

Сообщений: 6044

Откуда: Soviet Union



Награды: Нет

Торрент-статистика

Создавать темы 12-Дек-2014 20:03

[Цитировать]

Последний король Шотландии / The Last King of Scotland
«Charming. Magnetic. Murderous»
Русское название: Последний король Шотландии
Оригинальное название: The Last King of Scotland
Год выпуска: 2006
Жанр: драма, биография, история
Выпущено: Великобритания, Германия, США
Режиссер: Кевин МакДональд
В ролях: Форест Уитакер , Джеймс МакЭвой , Керри Вашингтон , Джиллиан Андерсон , Саймон МакБерни , Дэвид Ойелоуо , Стивен Рвангйези , Эбби Микииби Нкаага , Адам Котц , Сэм Окело , Сара Нагайи , Крис Уилсон
Перевод: Дублированный
Профессиональный многоголосый
Профессиональный (двухголосый) [П.Гланц и И.Королева]

Сюжет фильма:
Премии «Оскар», "Золотой глобус" и
"Британской академии" за Лучшую мужскую роль (Форест Уитакер), 2007г.

Власть президента Уганды Иди Амина и его смелые решения сперва очаровали шотландского медика Гарригана, ставшего личным врачом диктатора. Но жестокий режим и кровавые преступления президента изменили отношение Гарригана к своему кумиру, и он всеми силами пытается повлиять на проиcходящее.

Качество: BDRip 1080p (исходник Blu-ray)
Формат: AVC (библиотека кодирования x.264)
Контейнер (Расширение): MKV
Видео: 1920x814 (2.35:1), 11250 Кбит/сек, 23,976 кадр/сек, 0,300 Бит/[Пиксели*Кадры]
Аудио №1: русский / AC3 / 5.1 / 48 kHz / 640 kbps / 16 bit |Дублированный|
Аудио №2: русский / AC3 / 5.1 / 48 kHz / 448 kbps / 16 bit |Двухголосый закадровый, П.Гланц и И.Королева|
Аудио №3: русский / AC3 / 5.1 / 48 kHz / 448 kbps / 16 bit |Многоголосый закадровый|
Аудио №4: английский / AC3 / 5.1 / 48 kHz / 640 kbps / 16 bit
Субтитры: русские (Russian), английские (English)
Навигация по главам(Чаптеры): есть
Продолжительность: 02:03:01Автор рипа:

MediaInfo

Format                                   : Matroska
Format version                           : Version 2
File size                                : 11.5 GiB
Duration                                 : 2h 3mn
Overall bit rate                         : 13.4 Mbps
Movie name                               : Poslednij korol' Shotlandii.(2006).BDRip.1080p.[denis100]
Encoded date                             : UTC 2014-12-12 10:24:45
Writing application                      : mkvmerge v5.8.0 ('No Sleep / Pillow') built on Sep  2 2012 15:37:04
Writing library                          : libebml v1.2.3 + libmatroska v1.3.0
Video
ID                                       : 1
Format                                   : AVC
Format/Info                              : Advanced Video Codec
Format profile                           : High@L4.1
Format settings, CABAC                   : Yes
Format settings, ReFrames                : 5 frames
Codec ID                                 : V_MPEG4/ISO/AVC
Duration                                 : 2h 3mn
Bit rate                                 : 11.3 Mbps
Width                                    : 1 920 pixels
Height                                   : 814 pixels
Display aspect ratio                     : 2.35:1
Frame rate                               : 23.976 fps
Color space                              : YUV
Chroma subsampling                       : 4:2:0
Bit depth                                : 8 bits
Scan type                                : Progressive
Bits/(Pixel*Frame)                       : 0.300
Stream size                              : 9.43 GiB (82%)
Title                                    : Poslednij korol' Shotlandii.(2006).BDRip.1080p.[denis100]
Writing library                          : x264 core 142 r2491 24e4fed
Encoding settings                        : cabac=1 / ref=5 / deblock=1:-3:-3 / analyse=0x3:0x133 / me=umh / subme=11 / psy=1 / psy_rd=1.00:0.10 / mixed_ref=1 / me_range=32 / chroma_me=1 / trellis=2 / 8x8dct=1 / cqm=0 / deadzone=21,11 / fast_pskip=0 / chroma_qp_offset=-3 / threads=6 / lookahead_threads=1 / sliced_threads=0 / nr=0 / decimate=1 / interlaced=0 / bluray_compat=0 / constrained_intra=0 / bframes=8 / b_pyramid=2 / b_adapt=2 / b_bias=0 / direct=3 / weightb=1 / open_gop=0 / weightp=2 / keyint=240 / keyint_min=23 / scenecut=40 / intra_refresh=0 / rc=2pass / mbtree=0 / bitrate=11250 / ratetol=1.0 / qcomp=0.60 / qpmin=0 / qpmax=69 / qpstep=4 / cplxblur=20.0 / qblur=0.5 / ip_ratio=1.40 / pb_ratio=1.30 / aq=1:0.90
Language                                 : English
Default                                  : Yes
Forced                                   : No
Audio #1
ID                                       : 2
Format                                   : AC-3
Format/Info                              : Audio Coding 3
Mode extension                           : CM (complete main)
Codec ID                                 : A_AC3
Duration                                 : 2h 3mn
Bit rate mode                            : Constant
Bit rate                                 : 640 Kbps
Channel(s)                               : 6 channels
Channel positions                        : Front: L C R, Side: L R, LFE
Sampling rate                            : 48.0 KHz
Bit depth                                : 16 bits
Compression mode                         : Lossy
Stream size                              : 563 MiB (5%)
Title                                    : Дублированный
Language                                 : Russian
Default                                  : Yes
Forced                                   : No
Audio #2
ID                                       : 3
Format                                   : AC-3
Format/Info                              : Audio Coding 3
Mode extension                           : CM (complete main)
Codec ID                                 : A_AC3
Duration                                 : 2h 3mn
Bit rate mode                            : Constant
Bit rate                                 : 448 Kbps
Channel(s)                               : 6 channels
Channel positions                        : Front: L C R, Side: L R, LFE
Sampling rate                            : 48.0 KHz
Bit depth                                : 16 bits
Compression mode                         : Lossy
Stream size                              : 394 MiB (3%)
Title                                    : Двухголосый закадровый, П.Гланц и И.Королева
Language                                 : Russian
Default                                  : No
Forced                                   : No
Audio #3
ID                                       : 4
Format                                   : AC-3
Format/Info                              : Audio Coding 3
Mode extension                           : CM (complete main)
Codec ID                                 : A_AC3
Duration                                 : 2h 3mn
Bit rate mode                            : Constant
Bit rate                                 : 448 Kbps
Channel(s)                               : 6 channels
Channel positions                        : Front: L C R, Side: L R, LFE
Sampling rate                            : 48.0 KHz
Bit depth                                : 16 bits
Compression mode                         : Lossy
Stream size                              : 394 MiB (3%)
Title                                    : Многоголосый закадровый
Language                                 : Russian
Default                                  : No
Forced                                   : No
Audio #4
ID                                       : 5
Format                                   : AC-3
Format/Info                              : Audio Coding 3
Mode extension                           : CM (complete main)
Codec ID                                 : A_AC3
Duration                                 : 2h 3mn
Bit rate mode                            : Constant
Bit rate                                 : 640 Kbps
Channel(s)                               : 6 channels
Channel positions                        : Front: L C R, Side: L R, LFE
Sampling rate                            : 48.0 KHz
Bit depth                                : 16 bits
Compression mode                         : Lossy
Stream size                              : 563 MiB (5%)
Title                                    : English
Language                                 : English
Default                                  : No
Forced                                   : No
Text #1
ID                                       : 6
Format                                   : UTF-8
Codec ID                                 : S_TEXT/UTF8
Codec ID/Info                            : UTF-8 Plain Text
Title                                    : Russian
Language                                 : Russian
Default                                  : No
Forced                                   : No
Text #2
ID                                       : 7
Format                                   : UTF-8
Codec ID                                 : S_TEXT/UTF8
Codec ID/Info                            : UTF-8 Plain Text
Title                                    : English
Language                                 : English
Default                                  : No
Forced                                   : No
Menu
00:00:00.000                             : en:00:00:00.000
00:05:55.438                             : en:00:05:55.438
00:09:49.798                             : en:00:09:49.798
00:12:09.479                             : en:00:12:09.479
00:15:24.465                             : en:00:15:24.465
00:20:16.507                             : en:00:20:16.507
00:22:31.183                             : en:00:22:31.183
00:29:41.697                             : en:00:29:41.697
00:33:14.075                             : en:00:33:14.075
00:38:24.844                             : en:00:38:24.844
00:41:44.001                             : en:00:41:44.001
00:44:23.244                             : en:00:44:23.244
00:48:49.468                             : en:00:48:49.468
00:52:15.132                             : en:00:52:15.132
00:56:28.468                             : en:00:56:28.468
00:59:33.195                             : en:00:59:33.195
01:04:50.345                             : en:01:04:50.345
01:09:41.928                             : en:01:09:41.928
01:13:38.414                             : en:01:13:38.414
01:17:02.660                             : en:01:17:02.660
01:21:59.373                             : en:01:21:59.373
01:26:10.665                             : en:01:26:10.665
01:32:42.599                             : en:01:32:42.599
01:35:16.085                             : en:01:35:16.085
01:38:47.839                             : en:01:38:47.839
01:42:57.088                             : en:01:42:57.088
01:49:17.176                             : en:01:49:17.176
01:56:17.053                             : en:01:56:17.053

Скриншоты:

[Профиль] [ЛС]
Показать сообщения:    

Текущее время: Сегодня 10:08

Часовой пояс: GMT



Вы не можете начинать темы
Вы не можете отвечать на сообщения
Вы не можете редактировать свои сообщения
Вы не можете удалять свои сообщения
Вы не можете голосовать в опросах
Вы не можете прикреплять файлы к сообщениям
Вы не можете скачивать файлы