Последний корабль / The Last Ship (Сезон1-2, Серии 1-23 из 23) ( Майкл Бэй, Тони Марк, Тодд Арноу) [2014-2015, Фантастика, боевик, WEBDLRip-AVC 1080р] [DD5.1] [MVO] [LostFilm]

 
Автор Сообщение

Враг Нароода ®

Стаж: 1 год 8 месяцев

Сообщений: 109



Награды: 2 (Подробнее)

За внесенный вклад в развитие сайта (Количество: 1) Mega Seeder 1 (Количество: 1)
Торрент-статистика

Создавать темы 30-Июн-2015 12:25

[Цитировать]

-- --Последний корабль / The Last Ship Сезон1-2, Серия 1-23 из 23-- --Год выпуска: 2014-2015
Выпущено: США, Platinum Dunes
Жанр:: Фантастика, боевик
Продолжительность: 00:45:00
Сезон:: 1-2
Серия:: 1-23
Количество серий в сезоне:: 23
Озвучка:Профессиональная многоголосая закадровая(LostFilm_TV)
Субтитры: НЕТ--Официальный сайт сериала
--Режиссер: Майкл Бэй, Тони Марк, Тодд Арноу--Сценаристы:Стивен Кэйн, Кэмерон Уэлш, Хэнк Стейнберг, Уильям Бринкли--В ролях: Рона Митра, Эрик Дэйн, Адам Болдуин, Михаэлла МакМанус, Марисса Нейтлинг, Трэвис Ван Винкл, Чарльз Парнелл, Кристина Элмор, Джоко Симс, Джон Пайпер-Фергюсон, Кевин Майкл Мартин-- Такой шикарный корабль!
Вот и вышел на экраны долгожданный «Последний корабль». Разумеется, судить о сериале по пилоту было бы несколько странно. Однако некоторый смысл в этом есть. Не секрет, что именно в пилоте создатели современных сериалов стараются показать товар лицом, ведь от первого впечатления зрителей зависит и рейтинг последующих эпизодов.
Надо признать, что сюжет, предложенный авторами убийственно банален по нынешним временам. Пандемия косит человечество! Ну-ка, сколько раз вы уже видели это в последние годы? Удастся ли повернуть сюжет в сколь-нибудь нетривиальную сторону пока сказать сложно. Хотя финал пилота вроде обещает какую-то интригу…
Научная составляющая как обычно бредовая. Эпидемия начинается в Египте и разнесли ее полярные крачки. Хотя достаточно заглянуть в Вики, чтобы узнать — именно там они никогда не появляются! Что же такое делает в Антарктиде доктор Скотт не знают наверно и сами сценаристы…
Что до героев сериала, то пока на первом плане вне конкуренции эсминец США «Дьюи», в роли эсминца «Натан Джеймс». Да, представьте себе, корабль на экране самый настоящий, не нарисованный на и разница с анимацией бросается в глаза. Уж не знаю, чем киношники соблазнили Пентагон, но дело того стоило. Все так натурально, так красиво стреляют настоящие пушки…
Вот с героями-человеками пока что не очень здорово. Нет, они сплошь герои, непоколебимые и стойкие, прям с плаката, хоть гвозди делай из этих людей… но вот смотреть на них как-то не очень интересно. Будем надеяться, что дальше нам предложат некоторую индивидуализацию участников. А пока буду смотреть. По крайней мере, Рона Митра вполне себе на месте, секси, как всегда, хотя в роли великого эпидемиолога смотрится странно.
В надежде на лучшее продолжение
Сюжет :
Экипаж эсминца ВМС США «Натан Джеймс» с двумя первоклассными микробиологами на борту долгое время находился в море с важной миссией. Благодаря этой вынужденной изоляции от остального мира команда корабля избежала заражения смертельным вирусом, который вырезал больше половины населения земного шара. Когда эта новость достигла «Натана Джеймса», среди членов экипажа стала нарастать паника. Авторитет капитана Тома Чандлера (Эрик Дэйн) начал стремительно падать, а число конфликтов — неумолимо расти. К тому же выяснилось, что вирусологи оказались на борту корабля совсем не случайно...-- --Качество : WEB-DLRip-AVC 1080p
Формат: MPEG-4
Видео кодек: H264
Видео: 7223ит/сек,1920х1080(16.9),в 25.000кадр/сек,AVC(Baseline@L4.0)(1Ref Frames)
Аудио кодек: AAC
Аудио Russian Dolby Digital 5.1:288Кбит/сек,48.0КГц,2канала,AAC,(Version4)(LC)--

Доп. информация:

Звуковая дорожка сделана путем наложения чистого голоса озвучивателей на центральный канал оригинальной дорожки. Качество идентично звуковой дорожке.
--

Список эпизодов 1сезона


01 Пилот- Шестая стадия (Pilot-Phase Six)
02 Добро пожаловать в Гуантанамо! (Welcome to Gitmo)
03 Счисление координат (Dead Reckoning)
04 Последний рывок (We'll Get There)
05 Эль Торо (El Toro)
06 Карантин (Lockdown)
07 S.O.S.
08 Заходят два моряка в бар... (Two Sailors Walk Into a Bar...)
09 Испытания (Trials)
10 Нет места лучше дома (No Place Like Home)
--

Список эпизодов 2сезона


01 Нереальный город (Unreal City)
02 Битва за корабль (Fight the Ship)
03 Это не слухи (It's Not a Rumor)
04 Милосердие (Solace)
05 Ахиллес (Achilles)
06 Долгое путешествие (Long Day's Journey)
07 Одинокие и бесстрашные (Alone and Unafraid)
08 Убежище (Safe Zone)
09 Нет покоя голове (Uneasy Lies the Head)
10 Огонь по своим (Friendly Fire)
11 Валькирия (Valkyrie)
12 Бей тревогу (Cry Havoc)
13 Более совершенный союз (A More Perfect Union)
--

MediaInfo 1сезона

Общее
Полное имя : E:\К И Н О\С Е Р И А Л Ы\Последний корабль\The_Last_Ship_2014_-_2015_S01_-_S02_RUS[LostFilm_TV]_DD5.1_H264_N.B_WEB-DLRip-AVC_1080p\S01\The_Last_Ship_S01Е01_RUS[LostFilm_TV]_x264_Nikolai.Baranov_WEB-DLRip-AVC_1080.mp4
Формат : MPEG-4
Профиль формата : Base Media
Идентификатор кодека : isom
Размер файла : 2,40 Гбайт
Продолжительность : 45 м.
Режим общего битрейта : Переменный
Общий поток : 7525 Кбит/сек
Название фильма : Crossbones 1x01 The Devil's Dominion @ AlexFilm
Дата кодирования : UTC 2014-07-01 20:58:41
Дата пометки : UTC 2014-07-01 20:58:41
Программа кодирования : Lavf51.12.1
Видео
Идентификатор : 1
Формат : AVC
Формат/Информация : Advanced Video Codec
Профиль формата : Baseline@L4
Параметр CABAC формата : Нет
Параметр ReFrames формата : 1 кадр
Параметр GOP формата : M=1, N=12
Идентификатор кодека : avc1
Идентификатор кодека/Информация : Advanced Video Coding
Продолжительность : 45 м.
Вид битрейта : Переменный
Битрейт : 7223 Кбит/сек
Максимальный битрейт : 10,5 Мбит/сек
Ширина : 1920 пикселей
Высота : 1080 пикселей
Соотношение сторон : 16:9
Режим частоты кадров : Постоянный
Частота кадров : 25,000 кадров/сек
Частота кадров в оригинале : 24,000 кадра/сек
Цветовое пространство : YUV
Субдискретизация насыщенности : 4:2:0
Битовая глубина : 8 бит
Тип развёртки : Прогрессивная
Бит/(Пиксели*Кадры) : 0.139
Размер потока : 2,31 Гбайт (96%)
Дата кодирования : UTC 2014-07-01 20:58:41
Дата пометки : UTC 2014-07-01 20:58:41
Аудио
Идентификатор : 2
Формат : AAC
Формат/Информация : Advanced Audio Codec
Профиль формата : LC
Идентификатор кодека : 40
Продолжительность : 45 м.
Вид битрейта : Переменный
Битрейт : 297 Кбит/сек
Каналы : 2 канала
Channel(s)_Original : 6 каналов
Расположение каналов : Front: L C R, Side: L R, LFE
Частота : 48,0 КГц
Метод сжатия : С потерями
Размер потока : 97,2 Мбайт (4%)
Дата кодирования : UTC 2014-07-01 20:58:41
Дата пометки : UTC 2014-07-01 20:58:41
--

MediaInfo 2сезона

Общее
Полное имя : E:\К И Н О\С Е Р И А Л Ы\Последний корабль\The_Last_Ship_2014_-_2015_S01_-_S02_RUS[LostFilm_TV]_DD5.1_H264_N.B_WEB-DLRip-AVC_1080p\S02\The_Last_Ship_S02Е01_RUS[LostFilm_TV]_x264_Nikolai.Baranov_WEB-DLRip-AVC_1080.mp4
Формат : MPEG-4
Профиль формата : Base Media
Идентификатор кодека : isom
Размер файла : 2,21 Гбайт
Продолжительность : 42 м.
Режим общего битрейта : Переменный
Общий поток : 7528 Кбит/сек
Дата кодирования : UTC 2015-06-29 22:51:27
Дата пометки : UTC 2015-06-29 22:51:27
Программа кодирования : Lavf51.12.1
Видео
Идентификатор : 1
Формат : AVC
Формат/Информация : Advanced Video Codec
Профиль формата : Baseline@L4
Параметр CABAC формата : Нет
Параметр ReFrames формата : 1 кадр
Параметр GOP формата : M=1, N=12
Идентификатор кодека : avc1
Идентификатор кодека/Информация : Advanced Video Coding
Продолжительность : 42 м.
Вид битрейта : Переменный
Битрейт : 7236 Кбит/сек
Максимальный битрейт : 10,5 Мбит/сек
Ширина : 1920 пикселей
Высота : 1080 пикселей
Соотношение сторон : 16:9
Режим частоты кадров : Постоянный
Частота кадров : 25,000 кадров/сек
Частота кадров в оригинале : 24,000 кадра/сек
Цветовое пространство : YUV
Субдискретизация насыщенности : 4:2:0
Битовая глубина : 8 бит
Тип развёртки : Прогрессивная
Бит/(Пиксели*Кадры) : 0.140
Размер потока : 2,12 Гбайт (96%)
Дата кодирования : UTC 2015-06-29 22:51:27
Дата пометки : UTC 2015-06-29 22:51:27
Аудио
Идентификатор : 2
Формат : AAC
Формат/Информация : Advanced Audio Codec
Профиль формата : LC
Идентификатор кодека : 40
Продолжительность : 42 м.
Вид битрейта : Переменный
Битрейт : 288 Кбит/сек
Каналы : 2 канала
Channel(s)_Original : 6 каналов
Расположение каналов : Front: L C R, Side: L R, LFE
Частота : 48,0 КГц
Метод сжатия : С потерями
Размер потока : 86,3 Мбайт (4%)
Дата кодирования : UTC 2015-06-29 22:51:27
Дата пометки : UTC 2015-06-29 22:51:27
--

Скриншоты 1сезона

--

Скриншоты 2сезона

-- 1сезон-- 2сезон--

Как закачать отдельный файл

1. Открыть торрент
2. Снять галки с тех файлов торрента, которые мы не хотим закачивать. Оставляем только на нужных нам файлах (файле).
3. Нажать О.К.
В клиенте utorrent
Инструкция
1) Открыть торрент

2) Снять галки с тех файлов торрента, которые мы не хотим закачивать:
* либо вручную, снимая с каждого файла галку( скрин №1)
* либо, нажав кнопку "Снять метки (Select None)", сняв сразу со всех файлов(скрин №2)
№1

№2

Оставляем только на нужных нам файлах (файле).

3)Нажать О.К
-- -- --Внимание!!! 10.09. 2015. РАЗДАЧА ОБНОВЛЕНА.ФИНАЛ СЕЗОНА. ОБНОВИТЕ ТОРЕНТ ФАЙЛ.ПРИЯТНОГО ПРОСМОТРА . --Релиз от: Nikolai.Baranov -- -- -- --
[Профиль] [ЛС]
Показать сообщения:    

Текущее время: Сегодня 14:03

Часовой пояс: GMT



Вы не можете начинать темы
Вы не можете отвечать на сообщения
Вы не можете редактировать свои сообщения
Вы не можете удалять свои сообщения
Вы не можете голосовать в опросах
Вы не можете прикреплять файлы к сообщениям
Вы не можете скачивать файлы