Последний император / The Last Emperor (1987) BDRip 720p о

 
Автор Сообщение

Russian Mafia ®

Пол:

Стаж: 1 год 8 месяцев

Сообщений: 4256



Награды: 10 (Подробнее)

Mega Seeder 4 (Количество: 1) Top Releaser 3 (Количество: 1) Top Releaser 2 (Количество: 1)
Торрент-статистика

Создавать темы 23-Сен-2015 06:20

[Цитировать]

Последний император / The Last Emperor (1987) BDRip 720p
Информация о фильме
Название: Последний император
Оригинальное название: The Last Emperor
Год выхода: 1987
Жанр: драма, биография, история
Режиссер: Бернардо Бертолуччи
В ролях: Джон Лоун, Джоан Чэнь, Питер О’Тул, Ин Жочэн, Виктор Вонг, Деннис Дун, Рюити Сакамото, Мэгги Хань, Рик Янг, Вивиан Ву ..
О фильме: Он был повелителем миллиарда человек. Ему было уготовано «десять тысяч лет счастья». Но мир древних традиций рухнул под напором века перемен… В 1908 году трехлетний Пу И, последний из династии, тысячи лет правившей «Поднебесной империей», был возведен на Трон Дракона.
К императору-ребенку относятся как к божеству. Он может делать все, кроме одного — покидать пределы своего дворца. В Запретный город не долетают «ветры перемен», сотрясающие мир за его стенами. Но жизнь последнего императора Китая оказывается частью всей великой истории XX века.

Страна: Китай, Италия, Великобритания, Франция
Продолжительность: 02:43:05
Перевод: Профессиональный (многоголосый закадровый) - Cinema Prestige, Профессиональный (одноголосый закадровый) - А. Михалев, Оригинал (Английский)
Файл
Кодек: x.264
Качество: BDRip 720p
Видео: 1280x640, 23.976 fps, 5824 kbps, 0.297 bit/pixel
Аудио #1: 48 kHz, AC3 5.1, 384.00 kbps (Многоголосый)
Аудио #1: 48 kHz, AC3 5.1, 384.00 kbps (А. Михалёв)
Аудио #1: 48 kHz, AC3 5.1, 384.00 kbps (Оригинал)
Субтитры: Русский, Английский

MediaInfo

Общее
Уникальный идентификатор : 214075153194850425245381567533877599397 (0xA10D5FF227639D3DA790608AEEEC9CA5)
Полное имя : D:The Last Emperor.1987.BDRip.720p.mkv
Формат : Matroska
Версия формата : Version 4 / Version 2
Размер файла : 7,95 Гбайт
Продолжительность : 2 ч. 43 м.
Общий поток : 6982 Кбит/сек
Название фильма : Последний император / The Last Emperor (1987) BDRip 720p rip by Rulya74
Дата кодирования : UTC 2010-02-22 21:41:31
Программа кодирования : mkvmerge v5.9.0 ('On The Loose') built on Dec 9 2012 15:37:01
Библиотека кодирования : libebml v1.3.0 + libmatroska v1.4.0
Видео
Идентификатор : 1
Формат : AVC
Формат/Информация : Advanced Video Codec
Профиль формата : High@L4.1
Параметр CABAC формата : Да
Параметр ReFrames формата : 9 кадров
Идентификатор кодека : V_MPEG4/ISO/AVC
Продолжительность : 2 ч. 43 м.
Битрейт : 5824 Кбит/сек
Ширина : 1280 пикселей
Высота : 640 пикселей
Соотношение сторон : 2,000
Частота кадров : 23,976 кадра/сек
Цветовое пространство : YUV
Субдискретизация насыщенности : 4:2:0
Битовая глубина : 8 бит
Тип развёртки : Прогрессивная
Бит/(Пиксели*Кадры) : 0.297
Размер потока : 6,48 Гбайт (82%)
Библиотека кодирования : x264 core 129 r2245 bc13772
Настройки программы : cabac=1 / ref=9 / deblock=1:-3:-3 / analyse=0x3:0x133 / me=umh / subme=10 / psy=1 / psy_rd=1.12:0.00 / mixed_ref=1 / me_range=32 / chroma_me=1 / trellis=2 / 8x8dct=1 / cqm=0 / deadzone=21,11 / fast_pskip=0 / chroma_qp_offset=-2 / threads=10 / lookahead_threads=1 / sliced_threads=0 / nr=0 / decimate=1 / interlaced=0 / bluray_compat=0 / constrained_intra=0 / bframes=7 / b_pyramid=2 / b_adapt=1 / b_bias=0 / direct=3 / weightb=1 / open_gop=0 / weightp=2 / keyint=240 / keyint_min=22 / scenecut=40 / intra_refresh=0 / rc_lookahead=40 / rc=2pass / mbtree=1 / bitrate=5824 / ratetol=1.0 / qcomp=0.60 / qpmin=10 / qpmax=69 / qpstep=4 / cplxblur=20.0 / qblur=0.5 / ip_ratio=1.40 / aq=1:1.00
Default : Да
Forced : Нет
Аудио #1
Идентификатор : 2
Формат : AC-3
Формат/Информация : Audio Coding 3
Расширение режима : CM (complete main)
Идентификатор кодека : A_AC3
Продолжительность : 2 ч. 43 м.
Вид битрейта : Постоянный
Битрейт : 384 Кбит/сек
Каналы : 6 каналов
Расположение каналов : Front: L C R, Side: L R, LFE
Частота : 48,0 КГц
Битовая глубина : 16 бит
Метод сжатия : С потерями
Размер потока : 448 Мбайт (6%)
Заголовок : Многоголосый закадровый (Cinema Prestige)
Язык : Russian
Default : Да
Forced : Нет
Аудио #2
Идентификатор : 3
Формат : AC-3
Формат/Информация : Audio Coding 3
Расширение режима : CM (complete main)
Идентификатор кодека : A_AC3
Продолжительность : 2 ч. 43 м.
Вид битрейта : Постоянный
Битрейт : 384 Кбит/сек
Каналы : 6 каналов
Расположение каналов : Front: L C R, Side: L R, LFE
Частота : 48,0 КГц
Битовая глубина : 16 бит
Метод сжатия : С потерями
Размер потока : 448 Мбайт (6%)
Заголовок : Авторский одноголосый (А. Михалёв)
Язык : Russian
Default : Нет
Forced : Нет
Аудио #3
Идентификатор : 4
Формат : AC-3
Формат/Информация : Audio Coding 3
Расширение режима : CM (complete main)
Идентификатор кодека : A_AC3
Продолжительность : 2 ч. 43 м.
Вид битрейта : Постоянный
Битрейт : 384 Кбит/сек
Каналы : 2 канала
Расположение каналов : Front: L R
Частота : 48,0 КГц
Битовая глубина : 16 бит
Метод сжатия : С потерями
Размер потока : 448 Мбайт (6%)
Заголовок : Оригинал
Язык : English
Default : Нет
Forced : Нет
Текст #1
Идентификатор : 5
Формат : UTF-8
Идентификатор кодека : S_TEXT/UTF8
Идентификатор кодека/Информация : UTF-8 Plain Text
Заголовок : Cinema Prestige
Язык : Russian
Default : Да
Forced : Нет
Текст #2
Идентификатор : 6
Формат : VobSub
Режим смешивания : zlib
Идентификатор кодека : S_VOBSUB
Идентификатор кодека/Информация : The same subtitle format used on DVDs
Язык : English
Default : Нет
Forced : Нет
Меню
00:00:00.000 : :Manchuria, 1950
00:06:48.116 : :Peking, 1908
00:14:52.558 : :First coronation
00:18:35.072 : :The young emperor
00:21:18.527 : :Criminal
00:23:25.529 : :Pu Chieh
00:32:33.577 : :A new republic
00:37:12.897 : :Reginald Johnston
00:41:47.505 : :First lesson
00:45:40.738 : :Protests
00:49:51.822 : :Grief
00:57:12.095 : :Spectacles
01:00:31.127 : :Two wives
01:05:00.897 : :Strangers
01:10:31.310 : :Confession
01:13:32.867 : :Reforms
01:21:55.911 : :Departures
01:28:11.620 : :Life outside
01:34:59.777 : :Secondary consort
01:43:01.008 : :Tientsin, 1931
01:47:11.133 : :Manchuria, 1934
01:53:13.620 : :Second coronation
02:02:20.124 : :New quarters
02:05:08.626 : :Manchuria, 1935
02:13:03.058 : :Puppet
02:18:07.821 : :The Russians
02:25:25.383 : :Freedom
02:28:50.797 : :Peking, 1967
02:34:42.064 : :Citizen

Скриншоты



[Профиль] [ЛС]
Показать сообщения:    

Текущее время: Сегодня 22:25

Часовой пояс: GMT



Вы не можете начинать темы
Вы не можете отвечать на сообщения
Вы не можете редактировать свои сообщения
Вы не можете удалять свои сообщения
Вы не можете голосовать в опросах
Вы не можете прикреплять файлы к сообщениям
Вы не можете скачивать файлы