Последний император / The Last Emperor (1987) BDRip 1080p

 
Автор Сообщение

Russian Mafia ®

Пол:

Стаж: 1 год 8 месяцев

Сообщений: 4257



Награды: 10 (Подробнее)

Mega Seeder 5 (Количество: 1) Mega Seeder 1 (Количество: 1) Top Releaser 2 (Количество: 1)
Торрент-статистика

Создавать темы 23-Сен-2015 06:20

[Цитировать]

Информация о фильме
Название: Последний император
Оригинальное название: The Last Emperor
Год выхода: 1987
Жанр: драма, биография
Режиссер: Бернардо Бертолуччи
В ролях: Джон Лон, Джоан Чен, Питер О`Тул,Виктор Вонг, Дэннис Дан, Рюичи Сакамото, Мэгги Ан, Рик Янг, Вивиан Ву
О фильме:
Он был повелителем миллиарда человек. Ему было уготовано «десять тысяч лет счастья». Но мир древних традиций рухнул под напором века перемен… В 1908 году трехлетний Пу И, последний из династии, тысячи лет правившей «Поднебесной империей», был возведен на Трон Дракона. К императору-ребенку относятся как к божеству. Он может делать все, кроме одного — покидать пределы своего дворца. В Запретный город не долетают «ветры перемен», сотрясающие мир за его стенами. Но жизнь последнего императора Китая оказывается частью всей великой истории XX века.

Выпущено: Китай, Италия, Великобритания, Франция
Студия: Columbia Pictures
Продолжительность: 02:43:05
Перевод: Профессиональный многоголосый закадровый + Авторский одноголосый закадровый + Оригинал
Файл
Кодек: x264
Качество: BDRip (источник: Blu-ray Disc)
Видео: 1920x952 (2,017), 23.976 fps, 8982 kbps
Аудио #1: AC-3, 6 ch, 384 kbps (Rus) MVO
Аудио #2: AC-3, 6 ch, 384 kbps (Rus) А.Михалев
Аудио #3: AC-3, 6 ch, 384 kbps (Eng) Оригинал
Субтитры: Русские, Английские

Скриншоты

MI

Общее
Уникальный идентификатор : 246904277323757775827823048647552696512 (0xB9C008BB66A493DA8676E17221AA80C0)
Полное имя : F:РипыThe.Last.Emperor.1987.BDRip.1080p.Rus.Eng.mkv
Формат : Matroska
Версия формата : Version 2
Размер файла : 11,5 Гбайт
Продолжительность : 2 ч. 43 м.
Общий поток : 10,1 Мбит/сек
Название фильма : Последний император / The Last Emperor (1987)
Дата кодирования : UTC 2013-10-05 16:50:27
Программа кодирования : mkvmerge v5.8.0 ('No Sleep / Pillow') built on Sep 2 2012 15:37:04
Библиотека кодирования : libebml v1.2.3 + libmatroska v1.3.0
Attachment : Yes
Видео
Идентификатор : 1
Формат : AVC
Формат/Информация : Advanced Video Codec
Профиль формата : High@L4.1
Параметр CABAC формата : Да
Параметр ReFrames формата : 4 кадра
Идентификатор кодека : V_MPEG4/ISO/AVC
Продолжительность : 2 ч. 43 м.
Битрейт : 8982 Кбит/сек
Ширина : 1920 пикселей
Высота : 952 пикселя
Соотношение сторон : 2,017
Режим частоты кадров : Постоянный
Частота кадров : 23,976 кадра/сек
Цветовое пространство : YUV
Субдискретизация насыщенности : 4:2:0
Битовая глубина : 8 бит
Тип развёртки : Прогрессивная
Бит/(Пиксели*Кадры) : 0.205
Размер потока : 10,0 Гбайт (87%)
Заголовок : Release by N1NT3NDO
Библиотека кодирования : x264 core 138 r2358 9e941d1
Настройки программы : cabac=1 / ref=4 / deblock=1:-3:-3 / analyse=0x3:0x133 / me=umh / subme=11 / psy=1 / psy_rd=1.00:0.00 / mixed_ref=1 / me_range=32 / chroma_me=1 / trellis=2 / 8x8dct=1 / cqm=0 / deadzone=21,11 / fast_pskip=0 / chroma_qp_offset=-2 / threads=12 / lookahead_threads=1 / sliced_threads=0 / nr=0 / decimate=0 / interlaced=0 / bluray_compat=0 / constrained_intra=0 / bframes=6 / b_pyramid=2 / b_adapt=2 / b_bias=0 / direct=3 / weightb=1 / open_gop=0 / weightp=2 / keyint=240 / keyint_min=23 / scenecut=40 / intra_refresh=0 / rc_lookahead=80 / rc=2pass / mbtree=0 / bitrate=8982 / ratetol=1.0 / qcomp=0.60 / qpmin=0 / qpmax=69 / qpstep=4 / cplxblur=20.0 / qblur=0.5 / vbv_maxrate=50000 / vbv_bufsize=62500 / nal_hrd=none / ip_ratio=1.40 / pb_ratio=1.30 / aq=1:1.00
Язык : English
Default : Да
Forced : Нет
Аудио #1
Идентификатор : 2
Формат : AC-3
Формат/Информация : Audio Coding 3
Расширение режима : CM (complete main)
Параметр Endianness формата : Big
Идентификатор кодека : A_AC3
Продолжительность : 2 ч. 43 м.
Вид битрейта : Постоянный
Битрейт : 384 Кбит/сек
Каналы : 6 каналов
Расположение каналов : Front: L C R, Side: L R, LFE
Частота : 48,0 КГц
Битовая глубина : 16 бит
Метод сжатия : С потерями
Размер потока : 448 Мбайт (4%)
Заголовок : Профессиональный многоголосый закадровый
Язык : Russian
Default : Да
Forced : Нет
Аудио #2
Идентификатор : 3
Формат : AC-3
Формат/Информация : Audio Coding 3
Расширение режима : CM (complete main)
Параметр Endianness формата : Big
Идентификатор кодека : A_AC3
Продолжительность : 2 ч. 43 м.
Вид битрейта : Постоянный
Битрейт : 384 Кбит/сек
Каналы : 6 каналов
Расположение каналов : Front: L C R, Side: L R, LFE
Частота : 48,0 КГц
Битовая глубина : 16 бит
Метод сжатия : С потерями
Размер потока : 448 Мбайт (4%)
Заголовок : Авторский одноголосый закадровый, Михалев
Язык : Russian
Default : Нет
Forced : Нет
Аудио #3
Идентификатор : 4
Формат : AC-3
Формат/Информация : Audio Coding 3
Расширение режима : CM (complete main)
Параметр Endianness формата : Big
Идентификатор кодека : A_AC3
Продолжительность : 2 ч. 43 м.
Вид битрейта : Постоянный
Битрейт : 384 Кбит/сек
Каналы : 2 канала
Расположение каналов : Front: L R
Частота : 48,0 КГц
Битовая глубина : 16 бит
Метод сжатия : С потерями
Размер потока : 448 Мбайт (4%)
Заголовок : Eng
Язык : English
Default : Нет
Forced : Нет
Текст #1
Идентификатор : 5
Формат : UTF-8
Идентификатор кодека : S_TEXT/UTF8
Идентификатор кодека/Информация : UTF-8 Plain Text
Заголовок : Rus
Язык : Russian
Default : Нет
Forced : Нет
Текст #2
Идентификатор : 6
Формат : UTF-8
Идентификатор кодека : S_TEXT/UTF8
Идентификатор кодека/Информация : UTF-8 Plain Text
Заголовок : Eng
Язык : English
Default : Нет
Forced : Нет
Меню
00:00:00.000 : :Manchuria, 1950
00:06:48.116 : :Peking, 1908
00:14:52.558 : :First coronation
00:18:35.072 : :The young emperor
00:21:18.527 : :Criminal
00:23:25.529 : :Pu Chieh
00:32:33.577 : :A new republic
00:37:12.897 : :Reginald Johnston
00:41:47.505 : :First lesson
00:45:40.738 : :Protests
00:49:51.822 : :Grief
00:57:12.095 : :Spectacles
01:00:31.127 : :Two wives
01:05:00.897 : :Strangers
01:10:31.310 : :Confession
01:13:32.867 : :Reforms
01:21:55.911 : :Departures
01:28:11.620 : :Life outside
01:34:59.777 : :Secondary consort
01:43:01.008 : :Tientsin, 1931
01:47:11.133 : :Manchuria, 1934
01:53:13.620 : :Second coronation
02:02:20.124 : :New quarters
02:05:08.626 : :Manchuria, 1935
02:13:03.058 : :Puppet
02:18:07.821 : :The Russians
02:25:25.383 : :Freedom
02:28:50.797 : :Peking, 1967
02:34:42.064 : :Citizen
[Профиль] [ЛС]
Показать сообщения:    

Текущее время: Сегодня 00:36

Часовой пояс: GMT



Вы не можете начинать темы
Вы не можете отвечать на сообщения
Вы не можете редактировать свои сообщения
Вы не можете удалять свои сообщения
Вы не можете голосовать в опросах
Вы не можете прикреплять файлы к сообщениям
Вы не можете скачивать файлы