Последний император / The Last Emperor (1987) HDRip | P

 
Автор Сообщение

Russian Mafia ®

Пол:

Стаж: 1 год 8 месяцев

Сообщений: 4246



Награды: 10 (Подробнее)

Top Releaser 2 (Количество: 1) Mega Seeder 4 (Количество: 1) Mega Seeder 3 (Количество: 1)
Торрент-статистика

Создавать темы 23-Сен-2015 06:19

[Цитировать]

Информация о фильме
Название: Последний император
Оригинальное название: The Last Emperor
Год выхода: 1987
Жанр: драма, биография, история
Режиссер: Бернардо Бертолуччи / Bernardo Bertolucci
В ролях: Джон Лоун, Джоан Чэнь, Питер О’Тул, Ин Жочэн, Виктор Вонг, Деннис Дун, Рюити Сакамото, Мэгги Хань, Рик Янг, Вивиан Ву
О фильме:
Он был повелителем миллиарда человек. Ему было уготовано «десять тысяч лет счастья». Но мир древних традиций рухнул под напором века перемен… В 1908 году трехлетний Пу И, последний из династии, тысячи лет правившей «Поднебесной империей», был возведен на Трон Дракона.
К императору-ребенку относятся как к божеству. Он может делать все, кроме одного — покидать пределы своего дворца. В Запретный город не долетают «ветры перемен», сотрясающие мир за его стенами. Но жизнь последнего императора Китая оказывается частью всей великой истории XX века.

Страна: Китай, Италия, Великобритания, Франция
Продолжительность: 02:43:05
Перевод: Профессиональный (многоголосый закадровый)
Файл
Кодек: XviD
Качество: HDRip
Видео: 672x336 (2.000), 23.976 fps, 1 145 Kbps, 0.211 Bits/(Pixel*Frame)
Звук: MP3, 48 KHz, 128 Kbps, 2 channels
Семпл

Отчёт MediaInfo

General
Complete name : E:ВидеоФильмыPoslednij.imperator.1987.HDRip.XviD.1.46gb.avi
Format : AVI
Format/Info : Audio Video Interleave
File size : 1.46 GiB
Duration : 2h 43mn
Overall bit rate : 1 282 Kbps
Writing application : VirtualDubMod 1.5.10.2 (build 2540/release)
Writing library : VirtualDubMod build 2540/release
Video
ID : 0
Format : MPEG-4 Visual
Format profile : Advanced Simple@L5
Format settings, BVOP : 1
Format settings, QPel : No
Format settings, GMC : No warppoints
Format settings, Matrix : Custom
Codec ID : XVID
Codec ID/Hint : XviD
Duration : 2h 43mn
Bit rate : 1 145 Kbps
Width : 672 pixels
Height : 336 pixels
Display aspect ratio : 2.000
Frame rate : 23.976 fps
Color space : YUV
Chroma subsampling : 4:2:0
Bit depth : 8 bits
Scan type : Progressive
Compression mode : Lossy
Bits/(Pixel*Frame) : 0.211
Stream size : 1.30 GiB (89%)
Writing library : XviD 1.2.1 (UTC 2008-12-04)
Audio
ID : 1
Format : MPEG Audio
Format version : Version 1
Format profile : Layer 3
Mode : Joint stereo
Codec ID : 55
Codec ID/Hint : MP3
Duration : 2h 43mn
Bit rate mode : Constant
Bit rate : 128 Kbps
Channel(s) : 2 channels
Sampling rate : 48.0 KHz
Compression mode : Lossy
Stream size : 149 MiB (10%)
Alignment : Aligned on interleaves
Interleave, duration : 42 ms (1.00 video frame)
Interleave, preload duration : 504 ms

Скриншоты





[Профиль] [ЛС]
Показать сообщения:    

Текущее время: Сегодня 18:19

Часовой пояс: GMT



Вы не можете начинать темы
Вы не можете отвечать на сообщения
Вы не можете редактировать свои сообщения
Вы не можете удалять свои сообщения
Вы не можете голосовать в опросах
Вы не можете прикреплять файлы к сообщениям
Вы не можете скачивать файлы