Последний из Магикян [01-02х01-28 из 28] (2013) DVDRip-AVC от New-Team | лицензия

 
Автор Сообщение

sergej644 ®

Пол:

Стаж: 4 года 11 месяцев

Сообщений: 6041

Откуда: Soviet Union



Награды: Нет

Торрент-статистика

Создавать темы 07-Ноя-2014 15:18

[Цитировать]

«Комедия с акцентом» -Страна: Россия / Yellow, Black & White
Жанр: комедия, семейный
Год выпуска: 2013
Продолжительность: 00:24:00 / серия
Перевод: Не требуется
Cубтитры: нет
Оригинальная аудиодорожка: русский
Режиссер: Резо Гигинеишвили, Акаки Сахелашвили
В ролях: Грант Тохатян, Анна Ардова, Андрей Бурковский, Элен Касьяник, Алина Гринберг, Луиза-Габриэла Бровина, Баймурат Аллабериев, Наталия Вдовина, Александр Феклистов, Амина Хасанова...
Описание: Карену Магикяну почти 50 лет. Он — глава семьи и отец трех дочерей. В этом возрасте люди уже не меняются. Он давно сформулировал законы и правила, по которым живет, и нарушать ничего не собирается. Ему-то самому кажется, что за последние 10-15 лет он ничуть не изменился, ни капельки не постарел. Более того — он считает себя вполне современным человеком, хотя у него мобильный телефон с черно-белым экраном и нет электронной почты. Вот это, кстати, его раздражает особенно сильно — с чего все вокруг сходят с ума по этим гаджетам, айпэдам, айфонам. Почему младшая дочь, вернувшись из школы, сразу идет в интернет, а не поцеловать папу? «Общаться» — это же значит сидеть за столом, пить вино и разговаривать, а не пялиться в экран компьютера и портить себе глаза. Он не понимает современных отношений. Как у дочери может остаться ночевать парень, когда они не женаты? И его не волнуют уверения жены, что «сейчас все так делают». Пусть так делают все, но не в его семье! Он кавказец, у него есть принципы! Карен — «Последний из Магикян». И не только потому, что у него три дочери, а наследника в таком возрасте явно не предвидится. Он — представитель исчезающего вида людей, которые никогда не разговаривали по скайпу, для которых письмо — это исписанная буквами бумага в конверте, а самое главное — которые не прогибаются под меняющийся мир, потому что «сейчас так принято» и «ты живешь в 21 веке». Зрители помладше должны узнать в нем своих родителей, зрители постарше должны в нем узнать себя.
-Качество: DVDRip / 4 x DVD9 R5 - лицензионные диски от "CD Land"
Формат: MKV
Видео: 720x576@1024x576 (16:9), 25.000 fps, MPEG-4 AVC ~ 1808 kbps avg, ~ 0.174 bit/pixel
Аудио 1: 48 kHz, Dolby AC3, 2 ch, 128 kbps, русский - первый сезон
Аудио 2: 48 kHz, Dolby AC3, 2 ch, 192 kbps, русский - второй сезон
Раздача от:

MediaInfo

Общее
Полное имя : Posledniy.iz.Mogikyan.2013.O.DVDRip-AVC_[New_Team]_by_Avproh21.mkv
Формат : Matroska
Версия формата : Version 4 / Version 2
Размер файла : 348 Мбайт
Продолжительность : 24 м.
Общий поток : 2001 Кбит/сек
Дата кодирования : UTC 2014-07-29 09:18:54
Программа кодирования : mkvmerge v7.1.0 ('Good Love') 64bit built on Jul 27 2014 13:06:55
Библиотека кодирования : libebml v1.3.0 + libmatroska v1.4.1
DURATION : 00:24:20.064000000
NUMBER_OF_FRAMES : 45627
NUMBER_OF_BYTES : 35041536
_STATISTICS_WRITING_APP : mkvmerge v7.1.0 ('Good Love') 64bit built on Jul 27 2014 13:06:55
_STATISTICS_WRITING_DATE_UTC : 2014-07-29 09:18:54
_STATISTICS_TAGS : BPS DURATION NUMBER_OF_FRAMES NUMBER_OF_BYTES
Видео
Идентификатор : 1
Формат : AVC
Формат/Информация : Advanced Video Codec
Профиль формата : High@L4.1
Параметр CABAC формата : Да
Параметр ReFrames формата : 8 кадров
Идентификатор кодека : V_MPEG4/ISO/AVC
Продолжительность : 24 м.
Битрейт : 1808 Кбит/сек
Ширина : 720 пикселей
Высота : 576 пикселей
Соотношение сторон : 16:9
Режим частоты кадров : Постоянный
Частота кадров : 25,000 кадров/сек
Стандарт вещания : PAL
Цветовое пространство : YUV
Субдискретизация насыщенности : 4:2:0
Битовая глубина : 8 бит
Тип развёртки : Прогрессивная
Бит/(Пиксели*Кадры) : 0.174
Размер потока : 308 Мбайт (88%)
Библиотека кодирования : x264 core 138 r2356 a1d3d17
Настройки программы : cabac=1 / ref=8 / deblock=1:-2:-1 / analyse=0x3:0x113 / me=umh / subme=10 / psy=1 / psy_rd=1.00:0.05 / mixed_ref=1 / me_range=32 / chroma_me=1 / trellis=2 / 8x8dct=1 / cqm=0 / deadzone=21,11 / fast_pskip=0 / chroma_qp_offset=-3 / threads=9 / lookahead_threads=1 / sliced_threads=0 / nr=0 / decimate=0 / interlaced=0 / bluray_compat=0 / constrained_intra=0 / bframes=8 / b_pyramid=2 / b_adapt=2 / b_bias=0 / direct=3 / weightb=1 / open_gop=0 / weightp=2 / keyint=250 / keyint_min=25 / scenecut=40 / intra_refresh=0 / rc=2pass / mbtree=0 / bitrate=1808 / ratetol=1.0 / qcomp=0.60 / qpmin=0 / qpmax=69 / qpstep=4 / cplxblur=20.0 / qblur=0.5 / ip_ratio=1.40 / pb_ratio=1.30 / aq=1:1.00
Язык : Russian
Default : Да
Forced : Нет
DURATION : 00:24:20.360000000
NUMBER_OF_FRAMES : 36509
NUMBER_OF_BYTES : 329844324
_STATISTICS_WRITING_APP : mkvmerge v7.1.0 ('Good Love') 64bit built on Jul 27 2014 13:06:55
_STATISTICS_WRITING_DATE_UTC : 2014-07-29 09:18:54
_STATISTICS_TAGS : BPS DURATION NUMBER_OF_FRAMES NUMBER_OF_BYTES
Аудио
Идентификатор : 2
Формат : AC-3
Формат/Информация : Audio Coding 3
Расширение режима : CM (complete main)
Параметр Endianness формата : Big
Идентификатор кодека : A_AC3
Продолжительность : 24 м.
Вид битрейта : Постоянный
Битрейт : 192 Кбит/сек
Каналы : 2 канала
Расположение каналов : Front: L R
Частота : 48,0 КГц
Битовая глубина : 16 бит
Метод сжатия : С потерями
Размер потока : 33,4 Мбайт (10%)
Язык : Russian
Default : Да
Forced : Нет

Скриншоты:

Торрент заменен 7 ноября 2014 года, добавлен первый сезон
[Профиль] [ЛС]
Показать сообщения:    

Текущее время: Сегодня 08:33

Часовой пояс: GMT



Вы не можете начинать темы
Вы не можете отвечать на сообщения
Вы не можете редактировать свои сообщения
Вы не можете удалять свои сообщения
Вы не можете голосовать в опросах
Вы не можете прикреплять файлы к сообщениям
Вы не можете скачивать файлы