Последний из Магикян [01-02х01-28 из 28] (2013) DVDRip от New-Team | лицензия

 
Автор Сообщение

sergej644 ®

Пол:

Стаж: 5 лет 7 месяцев

Сообщений: 6131

Откуда: Soviet Union



Награды: 9 (Подробнее)

Mega Seeder 4 (Количество: 1) Mega Seeder 3 (Количество: 1) Mega Seeder 2 (Количество: 1)
Торрент-статистика

Создавать темы 07-Ноя-2014 10:40

[Цитировать]

«Комедия с акцентом» -Страна: Россия / Yellow, Black & White
Жанр: комедия, семейный
Год выпуска: 2013
Продолжительность: 00:24:00 / серия
Перевод: Не требуется
Cубтитры: нет
Оригинальная аудиодорожка: русский
Режиссер: Резо Гигинеишвили, Акаки Сахелашвили
В ролях: Грант Тохатян, Анна Ардова, Андрей Бурковский, Элен Касьяник, Алина Гринберг, Луиза-Габриэла Бровина, Баймурат Аллабериев, Наталия Вдовина, Александр Феклистов, Амина Хасанова...
Описание: Карену Магикяну почти 50 лет. Он — глава семьи и отец трех дочерей. В этом возрасте люди уже не меняются. Он давно сформулировал законы и правила, по которым живет, и нарушать ничего не собирается. Ему-то самому кажется, что за последние 10-15 лет он ничуть не изменился, ни капельки не постарел. Более того — он считает себя вполне современным человеком, хотя у него мобильный телефон с черно-белым экраном и нет электронной почты. Вот это, кстати, его раздражает особенно сильно — с чего все вокруг сходят с ума по этим гаджетам, айпэдам, айфонам. Почему младшая дочь, вернувшись из школы, сразу идет в интернет, а не поцеловать папу? «Общаться» — это же значит сидеть за столом, пить вино и разговаривать, а не пялиться в экран компьютера и портить себе глаза. Он не понимает современных отношений. Как у дочери может остаться ночевать парень, когда они не женаты? И его не волнуют уверения жены, что «сейчас все так делают». Пусть так делают все, но не в его семье! Он кавказец, у него есть принципы! Карен — «Последний из Магикян». И не только потому, что у него три дочери, а наследника в таком возрасте явно не предвидится. Он — представитель исчезающего вида людей, которые никогда не разговаривали по скайпу, для которых письмо — это исписанная буквами бумага в конверте, а самое главное — которые не прогибаются под меняющийся мир, потому что «сейчас так принято» и «ты живешь в 21 веке». Зрители помладше должны узнать в нем своих родителей, зрители постарше должны в нем узнать себя.
-Качество: DVDRip / 4 x DVD9 R5 - лицензионные диски от "CD Land"
Формат: AVI
Видео: 720x400 (16:9), 25.000 fps, XviD ~ 1800 kbps avg, 0.250 bit/pixel
Аудио 1: 48 kHz, Dolby AC3, 2 ch, 128 kbps, русский - первый сезон
Аудио 2: 48 kHz, Dolby AC3, 2 ch, 192 kbps, русский - второй сезон
Раздача от:

MediaInfo

Общее
Полное имя : Posledniy.iz.Mogikyan.2013.O.DVDRip_[New_Team]_by_Avproh1.avi
Формат : AVI
Формат/Информация : Audio Video Interleave
Размер файла : 349 Мбайт
Продолжительность : 24 м.
Общий поток : 2002 Кбит/сек
Программа кодирования : VirtualDubModRus 1.5.10.2 (build 2542/release)
Библиотека кодирования : VirtualDubMod build 2542/release
Видео
Идентификатор : 0
Формат : MPEG-4 Visual
Профиль формата : Advanced Simple@L5
Параметр BVOP формата : 1
Параметр QPel формата : Нет
Параметр GMC формата : Без точки перехода
Параметр матрицы формата : Выборочная
Идентификатор кодека : XVID
Идентификатор кодека/Подсказка : XviD
Продолжительность : 24 м.
Битрейт : 1800 Кбит/сек
Ширина : 720 пикселей
Высота : 400 пикселей
Соотношение сторон : 16:9
Частота кадров : 25,000 кадров/сек
Цветовое пространство : YUV
Субдискретизация насыщенности : 4:2:0
Битовая глубина : 8 бит
Тип развёртки : Прогрессивная
Метод сжатия : С потерями
Бит/(Пиксели*Кадры) : 0.250
Размер потока : 313 Мбайт (90%)
Библиотека кодирования : XviD 73
Аудио
Идентификатор : 1
Формат : AC-3
Формат/Информация : Audio Coding 3
Расширение режима : CM (complete main)
Параметр Endianness формата : Big
Идентификатор кодека : 2000
Продолжительность : 24 м.
Вид битрейта : Постоянный
Битрейт : 192 Кбит/сек
Каналы : 2 канала
Расположение каналов : Front: L R
Частота : 48,0 КГц
Битовая глубина : 16 бит
Метод сжатия : С потерями
Размер потока : 33,4 Мбайт (10%)
Выравнивание : Разделение по промежуткам
Продолжительность промежутка : 40 мс. (1,00 видеокадр)
Время предзагрузки промежутка : 500 мс.

Скриншоты:

--
[Профиль] [ЛС]
Кто просматривает тему:

Форум Тема Автор Размер
Pop (Pop) Анастасия Стоцкая - Последний Шаг - 2015, MP3, 320 kbps достали все 103 MB
Rock (Rock)Кино (Виктор Цой) - Последние записи - 1990 (опубликовано 2002), FLAC (image+.cue), lossless sergej644 466 MB
Rock (Рок) Белый проект - Последний день на Земле - 2015, MP3, 320 kbps достали все 54 MB
Фильмы 2016 года 1898. Последние на Филиппинах / 1898. Los últimos de Filipinas (2016) HDRip | L BOSS 2.05 GB
BBC BBC: Последние царственные воины Европы (1066: Год, чтобы покорить Англию) / Europe's Last Warrior Kings (1066: A Year to Conquer England) [серии 1-3 из 3](Tim Dunn, Robin Dashwood) [2016 ... skorpionN 10.25 GB
Культура и искусство BBC: Саймон Шама о Рембрандте. Шедевры последних лет / Schama on Rembrandt: Masterpieces of the Late Years (Франк Ханли / Frank Hanly) [2014 г., Документальный, искусство, биография, HDTVRip-AVC... skorpionN 1.75 GB
BBC BBC: Скрытые убийцы в домах послевоенного времени / Hidden Killers of The Post War Home (Suzanne Phillips) [2015 г., Документальный, история, HDTVRip 720p] skorpionN 1.8 GB
BBC BBC: Экспедиция "Тигр" (В поисках последнего тигра) / Lost Land of the Tiger [серии 1-3 из 3] (Annie Backhouse, Susanna Handslip, Rowan Musgrave) [2010 г., Документальный, природа, флор... skorpionN 4.76 GB
Показать сообщения:    

Текущее время: Сегодня 06:56

Часовой пояс: GMT



Вы не можете начинать темы
Вы не можете отвечать на сообщения
Вы не можете редактировать свои сообщения
Вы не можете удалять свои сообщения
Вы не можете голосовать в опросах
Вы не можете прикреплять файлы к сообщениям
Вы не можете скачивать файлы