Последний дом на Семетри Лэйн / The Last House on Cemetery Lane (Эндрю Джонс / Andrew Jones) [2015, Великобритания, ужасы, HDRip] DVO (Колобок) + Original Eng

 
Автор Сообщение

TorrentFilm ®

Пол:

Стаж: 2 года

Сообщений: 7741



Награды: Нет

Торрент-статистика

Создавать темы 14-Мар-2015 00:01

[Цитировать]

Последний дом на Семетри Лэйн / The Last House on Cemetery Lane
Страна: Великобритания
Жанр: ужасы
Год выпуска: 2015
Продолжительность: 01:21:15
Перевод: Любительский (двухголосый закадровый) Колобок
Cубтитры: нет
Оригинальная аудиодорожка: английский
Режиссер: Эндрю Джонс / Andrew Jones
В ролях: Вивьен Бридсон, Джорджина Блакледж, Ли Бэйн, Тесса Вуд
Описание: Писатель-сценарист, приезжает в прекрасный дом, расположенный в конце переулка у кладбища, чтобы в тишине и на свежем воздухе написать сценарий к новому фильму ужасов. Но выясняется, что в доме есть еще один жилец, хранящий, как и этот дом, страшные тайны...
Доп. информация:
Перевод: Северный
Сэмпл: http://multi-up.com
Качество видео: HDRip
Формат видео: AVI
Видео: DivX 5 720x304 23.98fps 1744Kbps
Аудио 1: MPEG Audio Layer 3 48000Hz stereo 224Kbps [русский]
Аудио 2: MPEG Audio Layer 3 48000Hz stereo 224Kbps [английский]

MediaInfo

General
Complete name : D:\TORRENTS\The.Last.House.on.Cemetery.Lane.2015.avi
Format : AVI
Format/Info : Audio Video Interleave
File size : 1.25 GiB
Duration : 1h 21mn
Overall bit rate : 2 206 Kbps
Video
ID : 0
Format : MPEG-4 Visual
Format profile : Advanced Simple@L5
Format settings, BVOP : 2
Format settings, QPel : No
Format settings, GMC : No warppoints
Format settings, Matrix : Default (H.263)
Codec ID : DX50
Codec ID/Hint : DivX 5
Duration : 1h 21mn
Bit rate : 1 745 Kbps
Width : 720 pixels
Height : 304 pixels
Display aspect ratio : 2.35:1
Frame rate : 23.976 fps
Color space : YUV
Chroma subsampling : 4:2:0
Bit depth : 8 bits
Scan type : Progressive
Compression mode : Lossy
Bits/(Pixel*Frame) : 0.332
Stream size : 1 014 MiB (79%)
Writing library : XviD 64
Audio #1
ID : 1
Format : MPEG Audio
Format version : Version 1
Format profile : Layer 3
Mode : Joint stereo
Mode extension : MS Stereo
Codec ID : 55
Codec ID/Hint : MP3
Duration : 1h 21mn
Source duration : 1h 21mn
Bit rate mode : Constant
Bit rate : 224 Kbps
Channel(s) : 2 channels
Sampling rate : 48.0 KHz
Compression mode : Lossy
Stream size : 130 MiB (10%)
Alignment : Aligned on interleaves
Interleave, duration : 42 ms (1.00 video frame)
Writing library : LAME3.99r
Encoding settings : -m j -V 4 -q 3 -lowpass 19.4 -b 224
Audio #2
ID : 2
Format : MPEG Audio
Format version : Version 1
Format profile : Layer 3
Mode : Joint stereo
Mode extension : MS Stereo
Codec ID : 55
Codec ID/Hint : MP3
Duration : 1h 21mn
Source duration : 1h 21mn
Bit rate mode : Constant
Bit rate : 224 Kbps
Channel(s) : 2 channels
Sampling rate : 48.0 KHz
Compression mode : Lossy
Stream size : 130 MiB (10%)
Alignment : Aligned on interleaves
Interleave, duration : 42 ms (1.00 video frame)
Writing library : LAME3.99r
Encoding settings : -m j -V 4 -q 3 -lowpass 19.4 -b 224

Скриншот c названием фильма

Скриншоты

[Профиль] [ЛС]
Показать сообщения:    

Текущее время: Сегодня 20:34

Часовой пояс: GMT



Вы не можете начинать темы
Вы не можете отвечать на сообщения
Вы не можете редактировать свои сообщения
Вы не можете удалять свои сообщения
Вы не можете голосовать в опросах
Вы не можете прикреплять файлы к сообщениям
Вы не можете скачивать файлы