Последний день учёбы / Last Day of School (2016) BDRip 720p | L

 
Автор Сообщение

BOSS ®

Пол:

Стаж: 3 года

Сообщений: 7612

Откуда: ODESSA



Награды: 22 (Подробнее)

Top Keeper 3 (Количество: 1) Mega Releaser 2 (Количество: 1) Top Seeder 3 (Количество: 1)
Торрент-статистика

Создавать темы 13-Окт-2017 18:05

[Цитировать]

Информация о фильме
Наименование: Последний день учёбы
Оригинальное наименование: Last Day of School
Произведено: США
Категория: комедия
Режиссер постановщик: Майкл Махал, Сонни Махал
В главных ролях: Ллойд Кауфман, Рэйчел Райли, Николас Джордж, Марк Энтони Джастис, Констанс Консола, Скотт Батлер, Наиля Шакирова, Том Бонелло, Шон Жерардо
О фильме:
Четверых парней ловят за списыванием на экзамене в колледже. Провинившихся студентов учитель заставляет выполнить ряд забавных заданий, чтобы они получили право выпуститься.

Файл
Качество: BDRip 720p
Видео данные: MKV, 1280x664 (1.928), 23.976 fps, 4000 Кбит/с
Аудио данные: Русский (AC3, 2 ch, 640 Кбит/с)
Перевод: Любительский многоголосый (GreenРай Studio)
Продолжительность: 01:34:55

Mediainfo

General
Unique ID : 208365063038159333086660862845972946841 (0x9CC1A6C3EA5ADCE2984B2D87CC309F99)
Complete name : D:Рабочий столLast.Day.of.School.2016.P.BDRip.720p.mkv
Format : Matroska
Format version : Version 4 / Version 2
File size : 3.05 GiB
Duration : 1 h 34 min
Overall bit rate mode : Constant
Overall bit rate : 4 607 kb/s
Encoded date : UTC 2017-10-13 08:51:53
Writing application : mkvmerge v8.3.0 ('Over the Horizon') 64bit
Writing library : libebml v1.3.1 + libmatroska v1.4.2
Video
ID : 1
Format : AVC
Format/Info : Advanced Video Codec
Format profile : Main@L3.1
Format settings, CABAC : Yes
Format settings, ReFrames : 3 frames
Format settings, GOP : M=4, N=15
Codec ID : V_MPEG4/ISO/AVC
Duration : 1 h 34 min
Bit rate mode : Constant
Bit rate : 4 000 kb/s
Width : 1 280 pixels
Height : 664 pixels
Display aspect ratio : 1.928
Frame rate mode : Constant
Frame rate : 23.976 (23976/1000) FPS
Original frame rate : 23.976 (24000/1001) FPS
Standard : NTSC
Color space : YUV
Chroma subsampling : 4:2:0
Bit depth : 8 bits
Scan type : Progressive
Bits/(Pixel*Frame) : 0.196
Stream size : 2.62 GiB (86%)
Language : English
Default : Yes
Forced : No
Color range : Limited
Audio
ID : 2
Format : AC-3
Format/Info : Audio Coding 3
Mode extension : CM (complete main)
Format settings, Endianness : Big
Codec ID : A_AC3
Duration : 1 h 34 min
Bit rate mode : Constant
Bit rate : 640 kb/s
Channel(s) : 2 channels
Channel positions : Front: L R
Sampling rate : 48.0 kHz
Frame rate : 31.250 FPS (1536 spf)
Compression mode : Lossy
Stream size : 434 MiB (14%)
Default : Yes
Forced : No
ВНИМАНИЕ! Присутствует реклама!

Скриншоты

Релиз от:
[Профиль] [ЛС]
Кто просматривает тему:

Форум Тема Автор Размер
Pop (Pop) Анастасия Стоцкая - Последний Шаг - 2015, MP3, 320 kbps достали все 103 MB
Rock (Rock)Кино (Виктор Цой) - Последние записи - 1990 (опубликовано 2002), FLAC (image+.cue), lossless sergej644 466 MB
Rock (Рок) Белый проект - Последний день на Земле - 2015, MP3, 320 kbps достали все 54 MB
Фильмы 2016 года 1898. Последние на Филиппинах / 1898. Los últimos de Filipinas (2016) HDRip | L BOSS 2.05 GB
Фильмы (HD DVD, Blu-ray и BDRemux) 2019: После падения Нью-Йорка / 2019 - Dopo la caduta di New York (1983) BDRemux 1080р | L1 BOSS 24.17 GB
Фильмы (HD Rips | 720p, 1080p) 2019: После падения Нью-Йорка / 2019 - Dopo la caduta di New York (1983) BDRip 1080p | L1 Swager 5.92 GB
BBC BBC: Последние царственные воины Европы (1066: Год, чтобы покорить Англию) / Europe's Last Warrior Kings (1066: A Year to Conquer England) [серии 1-3 из 3](Tim Dunn, Robin Dashwood) [2016 ... skorpionN 10.25 GB
Культура и искусство BBC: Саймон Шама о Рембрандте. Шедевры последних лет / Schama on Rembrandt: Masterpieces of the Late Years (Франк Ханли / Frank Hanly) [2014 г., Документальный, искусство, биография, HDTVRip-AVC... skorpionN 1.75 GB
Показать сообщения:    

Текущее время: Сегодня 23:15

Часовой пояс: GMT



Вы не можете начинать темы
Вы не можете отвечать на сообщения
Вы не можете редактировать свои сообщения
Вы не можете удалять свои сообщения
Вы не можете голосовать в опросах
Вы не можете прикреплять файлы к сообщениям
Вы не можете скачивать файлы